  0
SECTION
  2
HEADER
  9
$ACADVER
  1
AC1015
  9
$ACADMAINTVER
 70
     6
  9
$DWGCODEPAGE
  3
ANSI_1252
  9
$INSBASE
 10
0.0
 20
0.0
 30
0.0
  9
$EXTMIN
 10
0.0
 20
0.0
 30
0.0
  9
$EXTMAX
 10
210.0000000000001
 20
297.0000000000001
 30
0.0
  9
$LIMMIN
 10
0.0
 20
0.0
  9
$LIMMAX
 10
12.0
 20
9.0
  9
$ORTHOMODE
 70
     0
  9
$REGENMODE
 70
     1
  9
$FILLMODE
 70
     1
  9
$QTEXTMODE
 70
     0
  9
$MIRRTEXT
 70
     1
  9
$LTSCALE
 40
1.0
  9
$ATTMODE
 70
     1
  9
$TEXTSIZE
 40
0.2
  9
$TRACEWID
 40
0.05
  9
$TEXTSTYLE
  7
Standard
  9
$CLAYER
  8
0
  9
$CELTYPE
  6
ByLayer
  9
$CECOLOR
 62
   256
  9
$CELTSCALE
 40
1.0
  9
$DISPSILH
 70
     0
  9
$DIMSCALE
 40
1.0
  9
$DIMASZ
 40
0.18
  9
$DIMEXO
 40
0.0625
  9
$DIMDLI
 40
0.38
  9
$DIMRND
 40
0.0
  9
$DIMDLE
 40
0.0
  9
$DIMEXE
 40
0.18
  9
$DIMTP
 40
0.0
  9
$DIMTM
 40
0.0
  9
$DIMTXT
 40
0.18
  9
$DIMCEN
 40
0.09
  9
$DIMTSZ
 40
0.0
  9
$DIMTOL
 70
     0
  9
$DIMLIM
 70
     0
  9
$DIMTIH
 70
     1
  9
$DIMTOH
 70
     1
  9
$DIMSE1
 70
     0
  9
$DIMSE2
 70
     0
  9
$DIMTAD
 70
     0
  9
$DIMZIN
 70
     0
  9
$DIMBLK
  1

  9
$DIMASO
 70
     1
  9
$DIMSHO
 70
     1
  9
$DIMPOST
  1

  9
$DIMAPOST
  1

  9
$DIMALT
 70
     0
  9
$DIMALTD
 70
     2
  9
$DIMALTF
 40
25.4
  9
$DIMLFAC
 40
1.0
  9
$DIMTOFL
 70
     0
  9
$DIMTVP
 40
0.0
  9
$DIMTIX
 70
     0
  9
$DIMSOXD
 70
     0
  9
$DIMSAH
 70
     0
  9
$DIMBLK1
  1

  9
$DIMBLK2
  1

  9
$DIMSTYLE
  2
Standard
  9
$DIMCLRD
 70
     0
  9
$DIMCLRE
 70
     0
  9
$DIMCLRT
 70
     0
  9
$DIMTFAC
 40
1.0
  9
$DIMGAP
 40
0.09
  9
$DIMJUST
 70
     0
  9
$DIMSD1
 70
     0
  9
$DIMSD2
 70
     0
  9
$DIMTOLJ
 70
     1
  9
$DIMTZIN
 70
     0
  9
$DIMALTZ
 70
     0
  9
$DIMALTTZ
 70
     0
  9
$DIMUPT
 70
     0
  9
$DIMDEC
 70
     4
  9
$DIMTDEC
 70
     4
  9
$DIMALTU
 70
     2
  9
$DIMALTTD
 70
     2
  9
$DIMTXSTY
  7
Standard
  9
$DIMAUNIT
 70
     0
  9
$DIMADEC
 70
     0
  9
$DIMALTRND
 40
0.0
  9
$DIMAZIN
 70
     0
  9
$DIMDSEP
 70
    46
  9
$DIMATFIT
 70
     3
  9
$DIMFRAC
 70
     0
  9
$DIMLDRBLK
  1

  9
$DIMLUNIT
 70
     2
  9
$DIMLWD
 70
    -2
  9
$DIMLWE
 70
    -2
  9
$DIMTMOVE
 70
     0
  9
$LUNITS
 70
     2
  9
$LUPREC
 70
     4
  9
$SKETCHINC
 40
0.1
  9
$FILLETRAD
 40
0.5
  9
$AUNITS
 70
     0
  9
$AUPREC
 70
     0
  9
$MENU
  1
.
  9
$ELEVATION
 40
0.0
  9
$PELEVATION
 40
0.0
  9
$THICKNESS
 40
0.0
  9
$LIMCHECK
 70
     0
  9
$CHAMFERA
 40
0.5
  9
$CHAMFERB
 40
0.5
  9
$CHAMFERC
 40
1.0
  9
$CHAMFERD
 40
0.0
  9
$SKPOLY
 70
     0
  9
$TDCREATE
 40
2456997.596964572
  9
$TDUCREATE
 40
2456997.555297905
  9
$TDUPDATE
 40
2456997.596964931
  9
$TDUUPDATE
 40
2456997.555298264
  9
$TDINDWG
 40
0.0000000116
  9
$TDUSRTIMER
 40
0.0000000116
  9
$USRTIMER
 70
     1
  9
$ANGBASE
 50
0.0
  9
$ANGDIR
 70
     0
  9
$PDMODE
 70
     0
  9
$PDSIZE
 40
0.0
  9
$PLINEWID
 40
0.0
  9
$SPLFRAME
 70
     0
  9
$SPLINETYPE
 70
     6
  9
$SPLINESEGS
 70
     8
  9
$HANDSEED
  5
482
  9
$SURFTAB1
 70
     6
  9
$SURFTAB2
 70
     6
  9
$SURFTYPE
 70
     6
  9
$SURFU
 70
     6
  9
$SURFV
 70
     6
  9
$UCSBASE
  2

  9
$UCSNAME
  2

  9
$UCSORG
 10
0.0
 20
0.0
 30
0.0
  9
$UCSXDIR
 10
1.0
 20
0.0
 30
0.0
  9
$UCSYDIR
 10
0.0
 20
1.0
 30
0.0
  9
$UCSORTHOREF
  2

  9
$UCSORTHOVIEW
 70
     0
  9
$UCSORGTOP
 10
0.0
 20
0.0
 30
0.0
  9
$UCSORGBOTTOM
 10
0.0
 20
0.0
 30
0.0
  9
$UCSORGLEFT
 10
0.0
 20
0.0
 30
0.0
  9
$UCSORGRIGHT
 10
0.0
 20
0.0
 30
0.0
  9
$UCSORGFRONT
 10
0.0
 20
0.0
 30
0.0
  9
$UCSORGBACK
 10
0.0
 20
0.0
 30
0.0
  9
$PUCSBASE
  2

  9
$PUCSNAME
  2

  9
$PUCSORG
 10
0.0
 20
0.0
 30
0.0
  9
$PUCSXDIR
 10
1.0
 20
0.0
 30
0.0
  9
$PUCSYDIR
 10
0.0
 20
1.0
 30
0.0
  9
$PUCSORTHOREF
  2

  9
$PUCSORTHOVIEW
 70
     0
  9
$PUCSORGTOP
 10
0.0
 20
0.0
 30
0.0
  9
$PUCSORGBOTTOM
 10
0.0
 20
0.0
 30
0.0
  9
$PUCSORGLEFT
 10
0.0
 20
0.0
 30
0.0
  9
$PUCSORGRIGHT
 10
0.0
 20
0.0
 30
0.0
  9
$PUCSORGFRONT
 10
0.0
 20
0.0
 30
0.0
  9
$PUCSORGBACK
 10
0.0
 20
0.0
 30
0.0
  9
$USERI1
 70
     0
  9
$USERI2
 70
     0
  9
$USERI3
 70
     0
  9
$USERI4
 70
     0
  9
$USERI5
 70
     0
  9
$USERR1
 40
18.1
  9
$USERR2
 40
0.0
  9
$USERR3
 40
0.0
  9
$USERR4
 40
0.0
  9
$USERR5
 40
0.0
  9
$WORLDVIEW
 70
     1
  9
$SHADEDGE
 70
     3
  9
$SHADEDIF
 70
    70
  9
$TILEMODE
 70
     1
  9
$MAXACTVP
 70
    64
  9
$PINSBASE
 10
0.0
 20
0.0
 30
0.0
  9
$PLIMCHECK
 70
     0
  9
$PEXTMIN
 10
1.00000000000000E+20
 20
1.00000000000000E+20
 30
1.00000000000000E+20
  9
$PEXTMAX
 10
-1.00000000000000E+20
 20
-1.00000000000000E+20
 30
-1.00000000000000E+20
  9
$PLIMMIN
 10
0.0
 20
0.0
  9
$PLIMMAX
 10
12.0
 20
9.0
  9
$UNITMODE
 70
     0
  9
$VISRETAIN
 70
     1
  9
$PLINEGEN
 70
     0
  9
$PSLTSCALE
 70
     1
  9
$TREEDEPTH
 70
  3020
  9
$CMLSTYLE
  2
Standard
  9
$CMLJUST
 70
     0
  9
$CMLSCALE
 40
1.0
  9
$PROXYGRAPHICS
 70
     1
  9
$MEASUREMENT
 70
     1
  9
$CELWEIGHT
370
    -1
  9
$ENDCAPS
280
     0
  9
$JOINSTYLE
280
     0
  9
$LWDISPLAY
290
     0
  9
$INSUNITS
 70
     4
  9
$HYPERLINKBASE
  1

  9
$STYLESHEET
  1

  9
$XEDIT
290
     1
  9
$CEPSNTYPE
380
     0
  9
$PSTYLEMODE
290
     1
  9
$FINGERPRINTGUID
  2
{8042B962-05E0-4D77-A026-A141D27A1235}
  9
$VERSIONGUID
  2
{FAEB1C32-E019-11D5-929B-00C0DF256EC4}
  9
$EXTNAMES
290
     1
  9
$PSVPSCALE
 40
0.0
  9
$OLESTARTUP
290
     0
  0
ENDSEC
  0
SECTION
  2
CLASSES
  0
CLASS
  1
ACDBDICTIONARYWDFLT
  2
AcDbDictionaryWithDefault
  3
ObjectDBX Classes
 90
        0
280
     0
281
     0
  0
CLASS
  1
VISUALSTYLE
  2
AcDbVisualStyle
  3
ObjectDBX Classes
 90
     4095
280
     0
281
     0
  0
CLASS
  1
MATERIAL
  2
AcDbMaterial
  3
ObjectDBX Classes
 90
     1153
280
     0
281
     0
  0
CLASS
  1
DICTIONARYVAR
  2
AcDbDictionaryVar
  3
ObjectDBX Classes
 90
        0
280
     0
281
     0
  0
CLASS
  1
ACDBPLACEHOLDER
  2
AcDbPlaceHolder
  3
ObjectDBX Classes
 90
        0
280
     0
281
     0
  0
CLASS
  1
LAYOUT
  2
AcDbLayout
  3
ObjectDBX Classes
 90
        0
280
     0
281
     0
  0
ENDSEC
  0
SECTION
  2
TABLES
  0
TABLE
  2
VPORT
  5
8
330
0
100
AcDbSymbolTable
 70
     1
  0
VPORT
  5
29
330
8
100
AcDbSymbolTableRecord
100
AcDbViewportTableRecord
  2
*Active
 70
     0
 10
0.0
 20
0.0
 11
1.0
 21
1.0
 12
105.0000000000001
 22
148.5000000000001
 13
0.0
 23
0.0
 14
0.5
 24
0.5
 15
0.5
 25
0.5
 16
0.0
 26
0.0
 36
1.0
 17
0.0
 27
0.0
 37
0.0
 40
326.7000000000002
 41
1.60267857142857
 42
50.0
 43
0.0
 44
0.0
 50
0.0
 51
0.0
 71
     0
 72
   100
 73
     1
 74
     3
 75
     0
 76
     0
 77
     0
 78
     0
281
     0
 65
     1
110
0.0
120
0.0
130
0.0
111
1.0
121
0.0
131
0.0
112
0.0
122
1.0
132
0.0
 79
     0
146
0.0
  0
ENDTAB
  0
TABLE
  2
LTYPE
  5
5
330
0
100
AcDbSymbolTable
 70
     8
  0
LTYPE
  5
14
330
5
100
AcDbSymbolTableRecord
100
AcDbLinetypeTableRecord
  2
ByBlock
 70
     0
  3

 72
    65
 73
     0
 40
0.0
  0
LTYPE
  5
15
330
5
100
AcDbSymbolTableRecord
100
AcDbLinetypeTableRecord
  2
ByLayer
 70
     0
  3

 72
    65
 73
     0
 40
0.0
  0
LTYPE
  5
16
330
5
100
AcDbSymbolTableRecord
100
AcDbLinetypeTableRecord
  2
Continuous
 70
     0
  3
Solid line
 72
    65
 73
     0
 40
0.0
  0
LTYPE
  5
3F
330
5
100
AcDbSymbolTableRecord
100
AcDbLinetypeTableRecord
  2
DASHED
 70
     0
  3
Dashed
 72
    65
 73
     2
 40
15.0
 49
7.0
 74
     0
 49
-8.0
 74
     0
  0
LTYPE
  5
40
330
5
100
AcDbSymbolTableRecord
100
AcDbLinetypeTableRecord
  2
DOTTED
 70
     0
  3
Dotted
 72
    65
 73
     2
 40
1.0
 49
0.0
 74
     0
 49
-1.0
 74
     0
  0
LTYPE
  5
41
330
5
100
AcDbSymbolTableRecord
100
AcDbLinetypeTableRecord
  2
DOT_CENTER
 70
     0
  3
Dot_Center
 72
    65
 73
     4
 40
14.0
 49
12.0
 74
     0
 49
-1.0
 74
     0
 49
0.0
 74
     0
 49
-1.0
 74
     0
  0
LTYPE
  5
42
330
5
100
AcDbSymbolTableRecord
100
AcDbLinetypeTableRecord
  2
LONG_DASHED
 70
     0
  3
Long_Dashed
 72
    65
 73
     2
 40
15.0
 49
10.0
 74
     0
 49
-5.0
 74
     0
  0
LTYPE
  5
43
330
5
100
AcDbSymbolTableRecord
100
AcDbLinetypeTableRecord
  2
DASH_CENTER
 70
     0
  3
Dash_Center
 72
    65
 73
     4
 40
14.0
 49
11.0
 74
     0
 49
-1.0
 74
     0
 49
1.0
 74
     0
 49
-1.0
 74
     0
  0
LTYPE
  5
44
330
5
100
AcDbSymbolTableRecord
100
AcDbLinetypeTableRecord
  2
PHANTOM
 70
     0
  3
Phantom
 72
    65
 73
     6
 40
13.0
 49
10.0
 74
     0
 49
-1.0
 74
     0
 49
0.0
 74
     0
 49
-1.0
 74
     0
 49
0.0
 74
     0
 49
-1.0
 74
     0
  0
LTYPE
  5
45
330
5
100
AcDbSymbolTableRecord
100
AcDbLinetypeTableRecord
  2
CENTER_DASH_DASH
 70
     0
  3
Center_Dash_Dash
 72
    65
 73
     6
 40
14.0
 49
9.0
 74
     0
 49
-1.0
 74
     0
 49
1.0
 74
     0
 49
-1.0
 74
     0
 49
1.0
 74
     0
 49
-1.0
 74
     0
  0
ENDTAB
  0
TABLE
  2
LAYER
  5
2
330
0
100
AcDbSymbolTable
 70
     5
  0
LAYER
  5
10
330
2
100
AcDbSymbolTableRecord
100
AcDbLayerTableRecord
  2
0
 70
     0
 62
     7
  6
Continuous
370
    -3
390
F
  0
LAYER
  5
46
330
2
100
AcDbSymbolTableRecord
100
AcDbLayerTableRecord
  2
1
 70
     0
 62
     7
  6
Continuous
370
    -3
390
F
  0
LAYER
  5
47
330
2
100
AcDbSymbolTableRecord
100
AcDbLayerTableRecord
  2
Bemaßungen_TC_020513_DIN_
 70
     0
 62
     7
  6
Continuous
370
    -3
390
F
  0
LAYER
  5
48
330
2
100
AcDbSymbolTableRecord
100
AcDbLayerTableRecord
  2
Sichtbare_Kanten_TC_020513_DIN_
 70
     0
 62
     7
  6
Continuous
370
    -3
390
F
  0
LAYER
  5
49
330
2
100
AcDbSymbolTableRecord
100
AcDbLayerTableRecord
  2
Stich_1-Linien_TC_020513_DIN_
 70
     0
 62
     7
  6
Continuous
370
    -3
390
F
  0
ENDTAB
  0
TABLE
  2
STYLE
  5
3
330
0
100
AcDbSymbolTable
 70
     4
  0
STYLE
  5
11
330
3
100
AcDbSymbolTableRecord
100
AcDbTextStyleTableRecord
  2
Standard
 70
     0
 40
0.0
 41
1.0
 50
0.0
 71
     0
 42
0.2
  3
txt
  4

  0
STYLE
  5
9E
330
3
100
AcDbSymbolTableRecord
100
AcDbTextStyleTableRecord
  2
CONVERTER_11
 70
     0
 40
0.0
 41
1.38
 50
0.0
 71
     0
 42
0.2
  3
ARIAL.TTF
  4

  0
STYLE
  5
A0
330
3
100
AcDbSymbolTableRecord
100
AcDbTextStyleTableRecord
  2
CONVERTER_12
 70
     0
 40
0.0
 41
1.2
 50
0.0
 71
     0
 42
0.2
  3
ARIAL.TTF
  4

  0
STYLE
  5
425
330
3
100
AcDbSymbolTableRecord
100
AcDbTextStyleTableRecord
  2
CONVERTER_13
 70
     0
 40
0.0
 41
0.95
 50
0.0
 71
     0
 42
0.2
  3
simplex.shx
  4

  0
ENDTAB
  0
TABLE
  2
VIEW
  5
6
330
0
100
AcDbSymbolTable
 70
     0
  0
ENDTAB
  0
TABLE
  2
UCS
  5
7
330
0
100
AcDbSymbolTable
 70
     0
  0
ENDTAB
  0
TABLE
  2
APPID
  5
9
330
0
100
AcDbSymbolTable
 70
     1
  0
APPID
  5
12
330
9
100
AcDbSymbolTableRecord
100
AcDbRegAppTableRecord
  2
ACAD
 70
     0
  0
ENDTAB
  0
TABLE
  2
DIMSTYLE
  5
A
330
0
100
AcDbSymbolTable
 70
     6
100
AcDbDimStyleTable
  0
DIMSTYLE
105
27
330
A
100
AcDbSymbolTableRecord
100
AcDbDimStyleTableRecord
  2
Standard
 70
     0
178
     0
340
11
  0
DIMSTYLE
105
429
102
{ACAD_REACTORS
330
42A
102
}
330
A
100
AcDbSymbolTableRecord
100
AcDbDimStyleTableRecord
  2
ME10_DIM_10
 70
     0
 41
3.0
 42
0.5
 44
1.0
 73
     0
 74
     0
 77
     1
 78
     8
140
3.0
147
2.0
172
     1
173
     1
174
     1
175
     1
176
     2
177
     2
271
     2
178
     4
271
     2
340
425
  0
DIMSTYLE
105
434
102
{ACAD_REACTORS
330
435
102
}
330
A
100
AcDbSymbolTableRecord
100
AcDbDimStyleTableRecord
  2
ME10_DIM_11
 70
     0
 41
3.0
 42
0.5
 44
1.0
 73
     0
 74
     0
 77
     1
 78
     8
140
3.0
147
2.0
172
     1
173
     1
174
     1
175
     1
176
     2
177
     2
271
     2
178
     4
271
     2
340
425
  0
DIMSTYLE
105
43F
102
{ACAD_REACTORS
330
440
102
}
330
A
100
AcDbSymbolTableRecord
100
AcDbDimStyleTableRecord
  2
ME10_DIM_12
 70
     0
 41
3.0
 42
0.5
 44
1.0
 73
     0
 74
     0
 77
     1
 78
     8
140
3.0
147
2.0
172
     1
173
     1
174
     1
175
     1
176
     2
177
     2
271
     2
178
     4
271
     2
340
425
  0
DIMSTYLE
105
44A
102
{ACAD_REACTORS
330
44B
102
}
330
A
100
AcDbSymbolTableRecord
100
AcDbDimStyleTableRecord
  2
ME10_DIM_13
 70
     0
 41
3.0
 42
0.5
 44
1.0
 73
     0
 74
     0
 77
     1
 78
     8
140
3.0
147
2.0
172
     1
173
     1
174
     1
175
     1
176
     2
177
     2
271
     2
178
     4
271
     2
340
425
  0
DIMSTYLE
105
455
102
{ACAD_REACTORS
330
456
102
}
330
A
100
AcDbSymbolTableRecord
100
AcDbDimStyleTableRecord
  2
ME10_DIM_14
 70
     0
 41
3.0
 42
0.5
 44
1.0
 73
     0
 74
     0
 77
     1
 78
     8
140
3.0
147
2.0
172
     1
173
     1
174
     1
175
     1
176
     2
177
     2
271
     2
178
     4
271
     2
340
425
  0
ENDTAB
  0
TABLE
  2
BLOCK_RECORD
  5
1
330
0
100
AcDbSymbolTable
 70
     8
  0
BLOCK_RECORD
  5
1F
330
1
100
AcDbSymbolTableRecord
100
AcDbBlockTableRecord
  2
*Model_Space
340
22
  0
BLOCK_RECORD
  5
1B
330
1
100
AcDbSymbolTableRecord
100
AcDbBlockTableRecord
  2
*Paper_Space
340
1E
  0
BLOCK_RECORD
  5
23
330
1
100
AcDbSymbolTableRecord
100
AcDbBlockTableRecord
  2
*Paper_Space0
340
26
  0
BLOCK_RECORD
  5
4A
330
1
100
AcDbSymbolTableRecord
100
AcDbBlockTableRecord
  2
_formato_A4
340
0
102
{BLKREFS
331
4E
102
}
  0
BLOCK_RECORD
  5
4D
330
1
100
AcDbSymbolTableRecord
100
AcDbBlockTableRecord
  2
A4
340
0
102
{BLKREFS
331
51
102
}
  0
BLOCK_RECORD
  5
41F
330
1
100
AcDbSymbolTableRecord
100
AcDbBlockTableRecord
  2
*D3
340
0
  0
BLOCK_RECORD
  5
42B
330
1
100
AcDbSymbolTableRecord
100
AcDbBlockTableRecord
  2
*D4
340
0
  0
BLOCK_RECORD
  5
436
330
1
100
AcDbSymbolTableRecord
100
AcDbBlockTableRecord
  2
*D5
340
0
  0
BLOCK_RECORD
  5
441
330
1
100
AcDbSymbolTableRecord
100
AcDbBlockTableRecord
  2
*D6
340
0
  0
BLOCK_RECORD
  5
44C
330
1
100
AcDbSymbolTableRecord
100
AcDbBlockTableRecord
  2
*D7
340
0
  0
ENDTAB
  0
ENDSEC
  0
SECTION
  2
BLOCKS
  0
BLOCK
  5
20
330
1F
100
AcDbEntity
  8
0
100
AcDbBlockBegin
  2
*Model_Space
 70
     0
 10
0.0
 20
0.0
 30
0.0
  3
*Model_Space
  1

  0
ENDBLK
  5
21
330
1F
100
AcDbEntity
  8
0
100
AcDbBlockEnd
  0
BLOCK
  5
1C
330
1B
100
AcDbEntity
 67
     1
  8
0
100
AcDbBlockBegin
  2
*Paper_Space
 70
     0
 10
0.0
 20
0.0
 30
0.0
  3
*Paper_Space
  1

  0
ENDBLK
  5
1D
330
1B
100
AcDbEntity
 67
     1
  8
0
100
AcDbBlockEnd
  0
BLOCK
  5
24
330
23
100
AcDbEntity
  8
0
100
AcDbBlockBegin
  2
*Paper_Space0
 70
     0
 10
0.0
 20
0.0
 30
0.0
  3
*Paper_Space0
  1

  0
ENDBLK
  5
25
330
23
100
AcDbEntity
  8
0
100
AcDbBlockEnd
  0
BLOCK
  5
4B
330
4A
100
AcDbEntity
  8
0
100
AcDbBlockBegin
  2
_formato_A4
 70
     0
 10
210.0000000000001
 20
0.0
 30
0.0
  3
_formato_A4
  1

  0
LINE
  5
52
330
4A
100
AcDbEntity
  8
1
  6
Continuous
 62
     7
100
AcDbLine
 10
21.00000000000011
 20
14.99999999999989
 30
0.0
 11
51.00000000000011
 21
14.99999999999989
 31
0.0
  0
LINE
  5
53
330
4A
100
AcDbEntity
  8
1
  6
Continuous
 62
     7
100
AcDbLine
 10
21.00000000000011
 20
20.0
 30
0.0
 11
21.00000000000011
 21
4.99999999999989
 31
0.0
  0
LINE
  5
54
330
4A
100
AcDbEntity
  8
1
  6
Continuous
 62
     7
100
AcDbLine
 10
161.0000000000001
 20
20.0
 30
0.0
 11
161.0000000000001
 21
5.0
 31
0.0
  0
LINE
  5
55
330
4A
100
AcDbEntity
  8
1
  6
Continuous
 62
     7
100
AcDbLine
 10
178.3526013774855
 20
20.0
 30
0.0
 11
178.3526013774855
 21
5.0
 31
0.0
  0
LINE
  5
56
330
4A
100
AcDbEntity
  8
1
  6
Continuous
 62
     7
100
AcDbLine
 10
51.00000000000011
 20
20.0
 30
0.0
 11
51.00000000000011
 21
5.0
 31
0.0
  0
LINE
  5
57
330
4A
100
AcDbEntity
  8
1
  6
Continuous
 62
     7
100
AcDbLine
 10
21.00000000000011
 20
9.99999999999986
 30
0.0
 11
51.00000000000011
 21
9.99999999999986
 31
0.0
  0
LINE
  5
58
330
4A
100
AcDbEntity
  8
1
  6
Continuous
 62
     7
100
AcDbLine
 10
0.0
 20
148.4999999999998
 30
0.0
 11
15.0
 21
148.4999999999998
 31
0.0
  0
LINE
  5
59
330
4A
100
AcDbEntity
  8
1
  6
Continuous
 62
     7
100
AcDbLine
 10
210.0000000000001
 20
0.0
 30
0.0
 11
210.0000000000001
 21
297.0000000000001
 31
0.0
  0
LINE
  5
5A
330
4A
100
AcDbEntity
  8
1
  6
Continuous
 62
     7
100
AcDbLine
 10
0.0
 20
0.0
 30
0.0
 11
210.0000000000001
 21
0.0
 31
0.0
  0
LINE
  5
5B
330
4A
100
AcDbEntity
  8
1
  6
Continuous
 62
     7
100
AcDbLine
 10
0.0
 20
297.0000000000001
 30
0.0
 11
0.0
 21
0.0
 31
0.0
  0
LINE
  5
5C
330
4A
100
AcDbEntity
  8
1
  6
Continuous
 62
     7
100
AcDbLine
 10
210.0000000000001
 20
297.0000000000001
 30
0.0
 11
0.0
 21
297.0000000000001
 31
0.0
  0
LINE
  5
5D
330
4A
100
AcDbEntity
  8
1
  6
Continuous
 62
     7
100
AcDbLine
 10
205.0000000000001
 20
4.99999999999989
 30
0.0
 11
205.0000000000001
 21
292.0000000000001
 31
0.0
  0
LINE
  5
5E
330
4A
100
AcDbEntity
  8
1
  6
Continuous
 62
     7
100
AcDbLine
 10
205.0000000000001
 20
292.0000000000001
 30
0.0
 11
21.00000000000011
 21
292.0000000000001
 31
0.0
  0
LINE
  5
5F
330
4A
100
AcDbEntity
  8
1
  6
Continuous
 62
     7
100
AcDbLine
 10
21.00000000000011
 20
292.0000000000001
 30
0.0
 11
21.00000000000011
 21
4.99999999999989
 31
0.0
  0
LINE
  5
60
102
{ACAD_REACTORS
330
AC
102
}
330
4A
100
AcDbEntity
  8
1
  6
Continuous
 62
     7
100
AcDbLine
 10
194.0096340220762
 20
10.07749983983263
 30
0.0
 11
194.0096340220762
 21
14.92250016016737
 31
0.0
  0
LINE
  5
61
102
{ACAD_REACTORS
330
A9
102
}
330
4A
100
AcDbEntity
  8
1
  6
Continuous
 62
     7
100
AcDbLine
 10
192.6763006887428
 20
12.5
 30
0.0
 11
192.6763006887428
 21
14.23205080756884
 31
0.0
  0
LINE
  5
62
102
{ACAD_REACTORS
330
A9
102
}
330
4A
100
AcDbEntity
  8
1
  6
Continuous
 62
     7
100
AcDbLine
 10
192.6763006887428
 20
14.23205080756884
 30
0.0
 11
191.8206382560402
 21
12.75
 31
0.0
  0
LINE
  5
63
102
{ACAD_REACTORS
330
A9
102
}
330
4A
100
AcDbEntity
  8
1
  6
Continuous
 62
     7
100
AcDbLine
 10
191.5319631214453
 20
12.75
 30
0.0
 11
190.6763006887428
 21
14.23205080756884
 31
0.0
  0
LINE
  5
64
102
{ACAD_REACTORS
330
A9
102
}
330
4A
100
AcDbEntity
  8
1
  6
Continuous
 62
     7
100
AcDbLine
 10
190.6763006887428
 20
14.23205080756884
 30
0.0
 11
190.6763006887428
 21
12.5
 31
0.0
  0
LINE
  5
65
330
4A
100
AcDbEntity
  8
1
  6
Continuous
 62
     7
100
AcDbLine
 10
183.2598654136012
 20
12.64436426434133
 30
0.0
 11
191.6763006887428
 21
17.5
 31
0.0
  0
LINE
  5
66
330
4A
100
AcDbEntity
  8
1
  6
Continuous
 62
     7
100
AcDbLine
 10
191.6763006887428
 20
17.5
 30
0.0
 11
200.0927359638843
 21
12.64436426434133
 31
0.0
  0
LINE
  5
67
330
4A
100
AcDbEntity
  8
1
  6
Continuous
 62
     7
100
AcDbLine
 10
200.0927359638843
 20
12.35563573565855
 30
0.0
 11
191.6763006887428
 21
7.5
 31
0.0
  0
LINE
  5
68
330
4A
100
AcDbEntity
  8
1
  6
Continuous
 62
     7
100
AcDbLine
 10
191.6763006887428
 20
7.5
 30
0.0
 11
183.2598654136012
 21
12.35563573565855
 31
0.0
  0
LINE
  5
69
102
{ACAD_REACTORS
330
A9
102
}
330
4A
100
AcDbEntity
  8
1
  6
Continuous
 62
     7
100
AcDbLine
 10
190.0096340220761
 20
12.5
 30
0.0
 11
190.0096340220761
 21
15.73121731203457
 31
0.0
  0
LINE
  5
6A
102
{ACAD_REACTORS
330
A9
102
}
330
4A
100
AcDbEntity
  8
1
  6
Continuous
 62
     7
100
AcDbLine
 10
190.5040677056995
 20
15.86370041827229
 30
0.0
 11
191.6763006887428
 21
13.83333333333326
 31
0.0
  0
LINE
  5
6B
102
{ACAD_REACTORS
330
A9
102
}
330
4A
100
AcDbEntity
  8
1
  6
Continuous
 62
     7
100
AcDbLine
 10
190.0096340220761
 20
12.5
 30
0.0
 11
190.0096340220761
 21
10.84758507263291
 31
0.0
  0
LINE
  5
6C
102
{ACAD_REACTORS
330
A9
102
}
330
4A
100
AcDbEntity
  8
1
  6
Continuous
 62
     7
100
AcDbLine
 10
190.6763006887428
 20
10.84758507263291
 30
0.0
 11
190.6763006887428
 21
12.5
 31
0.0
  0
LINE
  5
6D
102
{ACAD_REACTORS
330
A9
102
}
330
4A
100
AcDbEntity
  8
1
  6
Continuous
 62
     7
100
AcDbLine
 10
192.6763006887428
 20
12.5
 30
0.0
 11
192.6763006887428
 21
9.3082690706018
 31
0.0
  0
LINE
  5
6E
102
{ACAD_REACTORS
330
A9
102
}
330
4A
100
AcDbEntity
  8
1
  6
Continuous
 62
     7
100
AcDbLine
 10
193.3429673554094
 20
9.3082690706018
 30
0.0
 11
193.3429673554094
 21
15.73121731203457
 31
0.0
  0
LINE
  5
6F
102
{ACAD_REACTORS
330
A9
102
}
330
4A
100
AcDbEntity
  8
1
  6
Continuous
 62
     7
100
AcDbLine
 10
192.8485336717861
 20
15.86370041827229
 30
0.0
 11
191.6763006887428
 21
13.83333333333326
 31
0.0
  0
LINE
  5
70
102
{ACAD_REACTORS
330
AA
102
}
330
4A
100
AcDbEntity
  8
1
  6
Continuous
 62
     7
100
AcDbLine
 10
188.6763006887428
 20
10.27002114803258
 30
0.0
 11
188.6763006887428
 21
14.92250016016737
 31
0.0
  0
LINE
  5
71
102
{ACAD_REACTORS
330
AA
102
}
330
4A
100
AcDbEntity
  8
1
  6
Continuous
 62
     7
100
AcDbLine
 10
189.3429673554094
 20
14.92250016016737
 30
0.0
 11
189.3429673554094
 21
10.2700211480327
 31
0.0
  0
LINE
  5
72
102
{ACAD_REACTORS
330
AA
102
}
330
4A
100
AcDbEntity
  8
1
  6
Continuous
 62
     7
100
AcDbLine
 10
189.3429673554094
 20
10.2700211480327
 30
0.0
 11
191.5095415065727
 21
9.0200745223616
 31
0.0
  0
LINE
  5
73
102
{ACAD_REACTORS
330
AA
102
}
330
4A
100
AcDbEntity
  8
1
  6
Continuous
 62
     7
100
AcDbLine
 10
191.1763932042462
 20
8.44261746499581
 30
0.0
 11
189.0098190530831
 21
9.69256409066691
 31
0.0
  0
LINE
  5
74
102
{ACAD_REACTORS
330
AB
102
}
330
4A
100
AcDbEntity
  8
1
  6
Continuous
 62
     7
100
AcDbLine
 10
188.0096340220761
 20
14.15326939093666
 30
0.0
 11
188.0096340220761
 21
11.0392519172633
 31
0.0
  0
LINE
  5
75
102
{ACAD_REACTORS
330
AB
102
}
330
4A
100
AcDbEntity
  8
1
  6
Continuous
 62
     7
100
AcDbLine
 10
188.0096340220761
 20
11.0392519172633
 30
0.0
 11
188.0096340220761
 21
10.84673060906323
 31
0.0
  0
LINE
  5
76
102
{ACAD_REACTORS
330
AB
102
}
330
4A
100
AcDbEntity
  8
1
  6
Continuous
 62
     7
100
AcDbLine
 10
187.3429673554094
 20
10.84673060906323
 30
0.0
 11
187.3429673554094
 21
14.15326939093666
 31
0.0
  0
LINE
  5
77
102
{ACAD_REACTORS
330
AC
102
}
330
4A
100
AcDbEntity
  8
1
  6
Continuous
 62
     7
100
AcDbLine
 10
194.5095415065727
 20
15.21122868885027
 30
0.0
 11
195.8428748399059
 21
14.44199791961944
 31
0.0
  0
LINE
  5
78
102
{ACAD_REACTORS
330
AC
102
}
330
4A
100
AcDbEntity
  8
1
  6
Continuous
 62
     7
100
AcDbLine
 10
195.5097265375796
 20
13.86454086225376
 30
0.0
 11
194.6763006887428
 21
14.34536346735194
 31
0.0
  0
LINE
  5
79
102
{ACAD_REACTORS
330
AC
102
}
330
4A
100
AcDbEntity
  8
1
  6
Continuous
 62
     7
100
AcDbLine
 10
194.6763006887428
 20
14.34536346735194
 30
0.0
 11
194.6763006887428
 21
12.83333333333326
 31
0.0
  0
LINE
  5
7A
102
{ACAD_REACTORS
330
AC
102
}
330
4A
100
AcDbEntity
  8
1
  6
Continuous
 62
     7
100
AcDbLine
 10
194.6763006887428
 20
12.83333333333326
 30
0.0
 11
195.6763006887428
 21
12.83333333333326
 31
0.0
  0
LINE
  5
7B
102
{ACAD_REACTORS
330
AC
102
}
330
4A
100
AcDbEntity
  8
1
  6
Continuous
 62
     7
100
AcDbLine
 10
195.6763006887428
 20
12.16666666666663
 30
0.0
 11
194.6763006887428
 21
12.16666666666663
 31
0.0
  0
LINE
  5
7C
102
{ACAD_REACTORS
330
AC
102
}
330
4A
100
AcDbEntity
  8
1
  6
Continuous
 62
     7
100
AcDbLine
 10
194.6763006887428
 20
12.16666666666663
 30
0.0
 11
194.6763006887428
 21
10.65463653264794
 31
0.0
  0
LINE
  5
7D
102
{ACAD_REACTORS
330
AC
102
}
330
4A
100
AcDbEntity
  8
1
  6
Continuous
 62
     7
100
AcDbLine
 10
194.6763006887428
 20
10.65463653264794
 30
0.0
 11
195.5097265375796
 21
11.13545913774624
 31
0.0
  0
LINE
  5
7E
102
{ACAD_REACTORS
330
AC
102
}
330
4A
100
AcDbEntity
  8
1
  6
Continuous
 62
     7
100
AcDbLine
 10
195.8428748399059
 20
10.55800208038033
 30
0.0
 11
194.5095415065727
 21
9.78877131114973
 31
0.0
  0
LINE
  5
7F
330
4A
100
AcDbEntity
  8
1
  6
Continuous
 62
     7
100
AcDbLine
 10
21.00000000000011
 20
25.0
 30
0.0
 11
205.0000000000001
 21
25.0
 31
0.0
  0
LINE
  5
80
330
4A
100
AcDbEntity
  8
1
  6
Continuous
 62
     7
100
AcDbLine
 10
28.00000000000011
 20
20.0
 30
0.0
 11
28.00000000000011
 21
25.0
 31
0.0
  0
LINE
  5
81
330
4A
100
AcDbEntity
  8
1
  6
Continuous
 62
     7
100
AcDbLine
 10
46.00000000000023
 20
20.0
 30
0.0
 11
46.00000000000023
 21
25.0
 31
0.0
  0
LINE
  5
82
330
4A
100
AcDbEntity
  8
1
  6
Continuous
 62
     7
100
AcDbLine
 10
21.00000000000011
 20
30.0
 30
0.0
 11
205.0000000000001
 21
30.0
 31
0.0
  0
LINE
  5
83
330
4A
100
AcDbEntity
  8
1
  6
Continuous
 62
     7
100
AcDbLine
 10
28.00000000000011
 20
25.0
 30
0.0
 11
28.00000000000011
 21
30.0
 31
0.0
  0
LINE
  5
84
330
4A
100
AcDbEntity
  8
1
  6
Continuous
 62
     7
100
AcDbLine
 10
46.00000000000023
 20
25.0
 30
0.0
 11
46.00000000000023
 21
30.0
 31
0.0
  0
LINE
  5
85
330
4A
100
AcDbEntity
  8
1
  6
Continuous
 62
     7
100
AcDbLine
 10
21.00000000000011
 20
35.0
 30
0.0
 11
205.0000000000001
 21
35.0
 31
0.0
  0
LINE
  5
86
330
4A
100
AcDbEntity
  8
1
  6
Continuous
 62
     7
100
AcDbLine
 10
28.00000000000011
 20
30.0
 30
0.0
 11
28.00000000000011
 21
35.0
 31
0.0
  0
LINE
  5
87
330
4A
100
AcDbEntity
  8
1
  6
Continuous
 62
     7
100
AcDbLine
 10
46.00000000000023
 20
30.0
 30
0.0
 11
46.00000000000023
 21
35.0
 31
0.0
  0
LINE
  5
88
330
4A
100
AcDbEntity
  8
1
  6
Continuous
 62
     7
100
AcDbLine
 10
21.00000000000011
 20
40.0
 30
0.0
 11
205.0000000000001
 21
40.0
 31
0.0
  0
LINE
  5
89
330
4A
100
AcDbEntity
  8
1
  6
Continuous
 62
     7
100
AcDbLine
 10
28.00000000000011
 20
35.0
 30
0.0
 11
28.00000000000011
 21
40.0
 31
0.0
  0
LINE
  5
8A
330
4A
100
AcDbEntity
  8
1
  6
Continuous
 62
     7
100
AcDbLine
 10
46.00000000000023
 20
35.0
 30
0.0
 11
46.00000000000023
 21
40.0
 31
0.0
  0
LINE
  5
8B
330
4A
100
AcDbEntity
  8
1
  6
Continuous
 62
     7
100
AcDbLine
 10
21.00000000000011
 20
4.99999999999989
 30
0.0
 11
205.0000000000001
 21
4.99999999999989
 31
0.0
  0
LINE
  5
8C
330
4A
100
AcDbEntity
  8
1
  6
Continuous
 62
     7
100
AcDbLine
 10
21.00000000000011
 20
20.0
 30
0.0
 11
205.0000000000001
 21
20.0
 31
0.0
  0
ARC
  5
8D
102
{ACAD_REACTORS
330
A9
102
}
330
4A
100
AcDbEntity
  8
1
  6
Continuous
 62
     7
100
AcDbCircle
 10
190.2746002345514
 20
15.73121731203457
 30
0.0
 40
0.2649662124752854
100
AcDbArc
 50
30.00000000001921
 51
180.0
  0
ARC
  5
8E
102
{ACAD_REACTORS
330
A9
102
}
330
4A
100
AcDbEntity
  8
1
  6
Continuous
 62
     7
100
AcDbCircle
 10
190.3429673554094
 20
10.84758507263291
 30
0.0
 40
0.333333333333286
100
AcDbArc
 50
180.0
 51
0.0
  0
ARC
  5
8F
102
{ACAD_REACTORS
330
A9
102
}
330
4A
100
AcDbEntity
  8
1
  6
Continuous
 62
     7
100
AcDbCircle
 10
193.0096340220762
 20
9.3082690706018
 30
0.0
 40
0.3333333333333997
100
AcDbArc
 50
180.0
 51
0.0
  0
ARC
  5
90
102
{ACAD_REACTORS
330
A9
102
}
330
4A
100
AcDbEntity
  8
1
  6
Continuous
 62
     7
100
AcDbCircle
 10
193.0780011429341
 20
15.73121731203457
 30
0.0
 40
0.2649662124752865
100
AcDbArc
 50
0.0
 51
149.9999999999716
  0
ARC
  5
91
102
{ACAD_REACTORS
330
AA
102
}
330
4A
100
AcDbEntity
  8
1
  6
Continuous
 62
     7
100
AcDbCircle
 10
189.0096340220761
 20
14.92250016016737
 30
0.0
 40
0.333333333333286
100
AcDbArc
 50
0.0
 51
180.0
  0
ARC
  5
92
102
{ACAD_REACTORS
330
AA
102
}
330
4A
100
AcDbEntity
  8
1
  6
Continuous
 62
     7
100
AcDbCircle
 10
191.3429673554094
 20
8.7313459936787
 30
0.0
 40
0.3333333333333567
100
AcDbArc
 50
240.0183606311536
 51
60.01836063113668
  0
ARC
  5
93
102
{ACAD_REACTORS
330
AB
102
}
330
4A
100
AcDbEntity
  8
1
  6
Continuous
 62
     7
100
AcDbCircle
 10
187.6763006887428
 20
14.15326939093666
 30
0.0
 40
0.3333333333333144
100
AcDbArc
 50
0.0
 51
180.0
  0
ARC
  5
94
102
{ACAD_REACTORS
330
AB
102
}
330
4A
100
AcDbEntity
  8
1
  6
Continuous
 62
     7
100
AcDbCircle
 10
187.6763006887428
 20
10.84673060906323
 30
0.0
 40
0.3333333333333997
100
AcDbArc
 50
180.0
 51
0.0
  0
ARC
  5
95
102
{ACAD_REACTORS
330
AC
102
}
330
4A
100
AcDbEntity
  8
1
  6
Continuous
 62
     7
100
AcDbCircle
 10
195.6763006887428
 20
14.15326939093666
 30
0.0
 40
0.3333333333333613
100
AcDbArc
 50
240.018360631154
 51
60.01836063115638
  0
ARC
  5
96
102
{ACAD_REACTORS
330
AC
102
}
330
4A
100
AcDbEntity
  8
1
  6
Continuous
 62
     7
100
AcDbCircle
 10
195.6763006887428
 20
12.5
 30
0.0
 40
0.3333333333333695
100
AcDbArc
 50
270.0
 51
90.0
  0
ARC
  5
97
102
{ACAD_REACTORS
330
AC
102
}
330
4A
100
AcDbEntity
  8
1
  6
Continuous
 62
     7
100
AcDbCircle
 10
195.6763006887428
 20
10.84673060906323
 30
0.0
 40
0.3333333333333172
100
AcDbArc
 50
299.9816393688334
 51
119.9816393688365
  0
ARC
  5
98
102
{ACAD_REACTORS
330
A9
102
}
330
4A
100
AcDbEntity
  8
1
  6
Continuous
 62
     7
100
AcDbCircle
 10
191.6763006887428
 20
12.83333333333326
 30
0.0
 40
0.166666666666709
100
AcDbArc
 50
209.9999999999622
 51
330.0000000000231
  0
ARC
  5
99
102
{ACAD_REACTORS
330
AA
102
}
330
4A
100
AcDbEntity
  8
1
  6
Continuous
 62
     7
100
AcDbCircle
 10
189.3429673554094
 20
10.2700211480327
 30
0.0
 40
0.6666666666666003
100
AcDbArc
 50
180.0000000000104
 51
240.0183606311601
  0
ARC
  5
9A
330
4A
100
AcDbEntity
  8
1
  6
Continuous
 62
     7
100
AcDbCircle
 10
183.3431524891829
 20
12.5
 30
0.0
 40
0.1666666666666265
100
AcDbArc
 50
119.9816393688962
 51
240.0183606311243
  0
ARC
  5
9B
330
4A
100
AcDbEntity
  8
1
  6
Continuous
 62
     7
100
AcDbCircle
 10
200.0094488883027
 20
12.5
 30
0.0
 40
0.166666666666687
100
AcDbArc
 50
299.9816393688503
 51
60.01836063112923
  0
ARC
  5
9C
102
{ACAD_REACTORS
330
AC
102
}
330
4A
100
AcDbEntity
  8
1
  6
Continuous
 62
     7
100
AcDbCircle
 10
194.3429673554094
 20
14.92250016016737
 30
0.0
 40
0.3333333333334166
100
AcDbArc
 50
60.01836063113698
 51
180.0
  0
ARC
  5
9D
102
{ACAD_REACTORS
330
AC
102
}
330
4A
100
AcDbEntity
  8
1
  6
Continuous
 62
     7
100
AcDbCircle
 10
194.3429673554094
 20
10.07749983983263
 30
0.0
 40
0.3333333333332007
100
AcDbArc
 50
180.0
 51
299.981639368863
  0
MTEXT
  5
9F
330
4A
100
AcDbEntity
  8
1
 62
     7
100
AcDbMText
 10
36.00000000000011
 20
17.49999999999994
 30
0.0
 40
2.5
 41
0.0
 71
     5
 72
     1
  1
dimensions in mm
  7
CONVERTER_11
 73
     1
 44
0.60024009603842
  0
MTEXT
  5
A1
330
4A
100
AcDbEntity
  8
1
 62
     7
100
AcDbMText
 10
16.0
 20
151.4999999999998
 30
0.0
 40
4.0
 41
0.0
 71
     5
 72
     1
  1
Diritti riservati      All rights reserved
  7
CONVERTER_12
 11
0.0
 21
1.0
 31
0.0
 73
     1
 44
1.32052821128451
  0
MTEXT
  5
A2
330
4A
100
AcDbEntity
  8
1
 62
     7
100
AcDbMText
 10
22.00000000000011
 20
12.49999999999987
 30
0.0
 40
3.0
 41
0.0
 71
     4
 72
     1
  1
Date
  7
CONVERTER_12
 73
     1
 44
1.32052821128451
  0
MTEXT
  5
A3
330
4A
100
AcDbEntity
  8
1
 62
     7
100
AcDbMText
 10
32.60000000000014
 20
12.49999999999987
 30
0.0
 40
3.0
 41
0.0
 71
     4
 72
     1
  1
01/09/14
  7
CONVERTER_12
 73
     1
 44
1.32052821128451
  0
MTEXT
  5
A4
330
4A
100
AcDbEntity
  8
1
 62
     7
100
AcDbMText
 10
22.00000000000011
 20
7.49999999999987
 30
0.0
 40
3.0
 41
0.0
 71
     4
 72
     1
  1
Sign.
  7
CONVERTER_12
 73
     1
 44
1.32052821128451
  0
MTEXT
  5
A5
330
4A
100
AcDbEntity
  8
1
 62
     7
100
AcDbMText
 10
32.60000000000014
 20
7.49999999999987
 30
0.0
 40
3.0
 41
0.0
 71
     4
 72
     1
  1
Radice
  7
CONVERTER_12
 73
     1
 44
1.32052821128451
  0
MTEXT
  5
A6
330
4A
100
AcDbEntity
  8
1
 62
     7
100
AcDbMText
 10
57.27630068874282
 20
12.5
 30
0.0
 40
4.5
 41
0.0
 71
     4
 72
     1
  1
CKAXW 03 VG\PMetal hood, stainless steel lever, top entry PG11 - AE
  7
CONVERTER_12
 73
     1
 44
0.90036014405762
  0
MTEXT
  5
A7
330
4A
100
AcDbEntity
  8
1
 62
     7
100
AcDbMText
 10
169.6763006887428
 20
16.26063942075598
 30
0.0
 40
3.0
 41
0.0
 71
     5
 72
     1
  1
Scale
  7
CONVERTER_12
 73
     1
 44
1.32052821128451
  0
MTEXT
  5
A8
330
4A
100
AcDbEntity
  8
1
 62
     7
100
AcDbMText
 10
169.6763006887428
 20
10.06063942075605
 30
0.0
 40
4.5
 41
0.0
 71
     5
 72
     1
  1
1:1
  7
CONVERTER_12
 73
     1
 44
1.32052821128451
  0
HATCH
  5
A9
330
4A
100
AcDbEntity
  8
1
  6
Continuous
 62
     7
100
AcDbHatch
 10
0.0
 20
0.0
 30
0.0
210
0.0
220
0.0
230
1.0
  2
SOLID
 70
     1
 71
     1
 91
        1
 92
        1
 93
       16
 72
     2
 10
190.2746002345514
 20
15.73121731203457
 40
0.2649662124752854
 50
30.00000000001921
 51
180.0
 73
     1
 72
     1
 10
190.0096340220761
 20
15.73121731203457
 11
190.0096340220761
 21
12.5
 72
     1
 10
190.0096340220761
 20
12.5
 11
190.0096340220761
 21
10.84758507263291
 72
     2
 10
190.3429673554094
 20
10.84758507263291
 40
0.333333333333286
 50
180.0
 51
360.0
 73
     1
 72
     1
 10
190.6763006887428
 20
10.84758507263291
 11
190.6763006887428
 21
12.5
 72
     1
 10
190.6763006887428
 20
12.5
 11
190.6763006887428
 21
14.23205080756884
 72
     1
 10
190.6763006887428
 20
14.23205080756884
 11
191.5319631214453
 21
12.75
 72
     2
 10
191.6763006887428
 20
12.83333333333326
 40
0.166666666666709
 50
209.9999999999622
 51
330.0000000000231
 73
     1
 72
     1
 10
191.8206382560402
 20
12.75
 11
192.6763006887428
 21
14.23205080756884
 72
     1
 10
192.6763006887428
 20
14.23205080756884
 11
192.6763006887428
 21
12.5
 72
     1
 10
192.6763006887428
 20
12.5
 11
192.6763006887428
 21
9.308269070601796
 72
     2
 10
193.0096340220762
 20
9.308269070601796
 40
0.3333333333333997
 50
180.0
 51
360.0
 73
     1
 72
     1
 10
193.3429673554094
 20
9.308269070601796
 11
193.3429673554094
 21
15.73121731203457
 72
     2
 10
193.0780011429341
 20
15.73121731203457
 40
0.2649662124752865
 50
0.0
 51
149.9999999999716
 73
     1
 72
     1
 10
192.8485336717861
 20
15.86370041827229
 11
191.6763006887428
 21
13.83333333333326
 72
     1
 10
191.6763006887428
 20
13.83333333333326
 11
190.5040677056995
 21
15.86370041827229
 97
       16
330
6F
330
90
330
6E
330
8F
330
6D
330
61
330
62
330
98
330
63
330
64
330
6C
330
8E
330
6B
330
69
330
8D
330
6A
 75
     0
 76
     1
 98
        1
 10
0.0
 20
0.0
  0
HATCH
  5
AA
330
4A
100
AcDbEntity
  8
1
  6
Continuous
 62
     7
100
AcDbHatch
 10
0.0
 20
0.0
 30
0.0
210
0.0
220
0.0
230
1.0
  2
SOLID
 70
     1
 71
     1
 91
        1
 92
        1
 93
        7
 72
     1
 10
189.3429673554094
 20
14.92250016016737
 11
189.3429673554094
 21
10.2700211480327
 72
     1
 10
189.3429673554094
 20
10.2700211480327
 11
191.5095415065727
 21
9.020074522361597
 72
     2
 10
191.3429673554094
 20
8.731345993678701
 40
0.3333333333333567
 50
299.9816393688633
 51
479.9816393688463
 73
     0
 72
     1
 10
191.1763932042462
 20
8.442617464995806
 11
189.0098190530831
 21
9.692564090666906
 72
     2
 10
189.3429673554094
 20
10.2700211480327
 40
0.6666666666666003
 50
119.9816393688399
 51
179.9999999999896
 73
     0
 72
     1
 10
188.6763006887428
 20
10.27002114803258
 11
188.6763006887428
 21
14.92250016016737
 72
     2
 10
189.0096340220761
 20
14.92250016016737
 40
0.333333333333286
 50
180.0
 51
360.0
 73
     0
 97
        7
330
71
330
72
330
92
330
73
330
99
330
70
330
91
 75
     0
 76
     1
 98
        1
 10
0.0
 20
0.0
  0
HATCH
  5
AB
330
4A
100
AcDbEntity
  8
1
  6
Continuous
 62
     7
100
AcDbHatch
 10
0.0
 20
0.0
 30
0.0
210
0.0
220
0.0
230
1.0
  2
SOLID
 70
     1
 71
     1
 91
        1
 92
        1
 93
        5
 72
     1
 10
188.0096340220761
 20
14.15326939093666
 11
188.0096340220761
 21
11.0392519172633
 72
     1
 10
188.0096340220761
 20
11.0392519172633
 11
188.0096340220761
 21
10.84673060906323
 72
     2
 10
187.6763006887428
 20
10.84673060906323
 40
0.3333333333333997
 50
0.0
 51
180.0
 73
     0
 72
     1
 10
187.3429673554094
 20
10.84673060906323
 11
187.3429673554094
 21
14.15326939093666
 72
     2
 10
187.6763006887428
 20
14.15326939093666
 40
0.3333333333333144
 50
180.0
 51
360.0
 73
     0
 97
        5
330
74
330
75
330
94
330
76
330
93
 75
     0
 76
     1
 98
        1
 10
0.0
 20
0.0
  0
HATCH
  5
AC
330
4A
100
AcDbEntity
  8
1
  6
Continuous
 62
     7
100
AcDbHatch
 10
0.0
 20
0.0
 30
0.0
210
0.0
220
0.0
230
1.0
  2
SOLID
 70
     1
 71
     1
 91
        1
 92
        1
 93
       14
 72
     1
 10
195.5097265375796
 20
13.86454086225376
 11
194.6763006887428
 21
14.34536346735194
 72
     1
 10
194.6763006887428
 20
14.34536346735194
 11
194.6763006887428
 21
12.83333333333326
 72
     1
 10
194.6763006887428
 20
12.83333333333326
 11
195.6763006887428
 21
12.83333333333326
 72
     2
 10
195.6763006887428
 20
12.5
 40
0.3333333333333695
 50
270.0
 51
450.0
 73
     0
 72
     1
 10
195.6763006887428
 20
12.16666666666663
 11
194.6763006887428
 21
12.16666666666663
 72
     1
 10
194.6763006887428
 20
12.16666666666663
 11
194.6763006887428
 21
10.65463653264794
 72
     1
 10
194.6763006887428
 20
10.65463653264794
 11
195.5097265375796
 21
11.13545913774624
 72
     2
 10
195.6763006887428
 20
10.84673060906323
 40
0.3333333333333172
 50
240.0183606311635
 51
420.0183606311665
 73
     0
 72
     1
 10
195.8428748399059
 20
10.55800208038033
 11
194.5095415065727
 21
9.78877131114973
 72
     2
 10
194.3429673554094
 20
10.07749983983263
 40
0.3333333333332007
 50
60.01836063113696
 51
180.0
 73
     0
 72
     1
 10
194.0096340220762
 20
10.07749983983263
 11
194.0096340220762
 21
14.92250016016737
 72
     2
 10
194.3429673554094
 20
14.92250016016737
 40
0.3333333333334166
 50
180.0
 51
299.981639368863
 73
     0
 72
     1
 10
194.5095415065727
 20
15.21122868885027
 11
195.8428748399059
 21
14.44199791961944
 72
     2
 10
195.6763006887428
 20
14.15326939093666
 40
0.3333333333333613
 50
299.9816393688436
 51
479.9816393688459
 73
     0
 97
       14
330
77
330
9C
330
60
330
9D
330
7E
330
97
330
7D
330
7C
330
7B
330
96
330
7A
330
79
330
78
330
95
 75
     0
 76
     1
 98
        1
 10
0.0
 20
0.0
  0
ENDBLK
  5
4C
330
4A
100
AcDbEntity
  8
0
100
AcDbBlockEnd
  0
BLOCK
  5
4F
330
4D
100
AcDbEntity
  8
0
100
AcDbBlockBegin
  2
A4
 70
     0
 10
210.0000000000001
 20
0.0
 30
0.0
  3
A4
  1

  0
INSERT
  5
4E
330
4D
100
AcDbEntity
  8
1
100
AcDbBlockReference
  2
_formato_A4
 10
210.0000000000001
 20
0.0
 30
0.0
  0
ENDBLK
  5
50
330
4D
100
AcDbEntity
  8
0
100
AcDbBlockEnd
  0
BLOCK
  5
427
330
41F
100
AcDbEntity
  8
0
100
AcDbBlockBegin
  2
*D3
 70
     1
 10
0.0
 20
0.0
 30
0.0
  3
*D3
  1

  0
LINE
  5
420
330
41F
100
AcDbEntity
  8
1
  6
Continuous
 62
     2
100
AcDbLine
 10
67.5452957337215
 20
193.150502547473
 30
0.0
 11
67.5452957337215
 21
226.150502547473
 31
0.0
  0
LINE
  5
421
330
41F
100
AcDbEntity
  8
1
  6
Continuous
 62
     2
100
AcDbLine
 10
77.6445987904782
 20
226.150502547473
 30
0.0
 11
66.5452957337215
 21
226.150502547473
 31
0.0
  0
LINE
  5
422
330
41F
100
AcDbEntity
  8
1
  6
Continuous
 62
     2
100
AcDbLine
 10
77.6445987904782
 20
193.150502547473
 30
0.0
 11
66.5452957337215
 21
193.150502547473
 31
0.0
  0
SOLID
  5
423
330
41F
100
AcDbEntity
  8
1
 62
     2
100
AcDbTrace
 10
67.15033824095931
 20
196.150502547473
 30
0.0
 11
67.94025322648369
 21
196.150502547473
 31
0.0
 12
67.5452957337215
 22
193.150502547473
 32
0.0
 13
67.5452957337215
 23
193.150502547473
 33
0.0
  0
SOLID
  5
424
330
41F
100
AcDbEntity
  8
1
 62
     2
100
AcDbTrace
 10
67.94025322648369
 20
223.150502547473
 30
0.0
 11
67.15033824095931
 21
223.150502547473
 31
0.0
 12
67.5452957337215
 22
226.150502547473
 32
0.0
 13
67.5452957337215
 23
226.150502547473
 33
0.0
  0
MTEXT
  5
426
330
41F
100
AcDbEntity
  8
1
 62
     4
100
AcDbMText
 10
65.5452957337215
 20
207.400502547473
 30
0.0
 40
3.0
 41
0.0
 71
     7
 72
     1
  1
33
  7
CONVERTER_13
 11
0.0
 21
1.0
 31
0.0
 73
     1
 44
0.60024009603842
  0
ENDBLK
  5
428
330
41F
100
AcDbEntity
  8
0
100
AcDbBlockEnd
  0
BLOCK
  5
432
330
42B
100
AcDbEntity
  8
0
100
AcDbBlockBegin
  2
*D4
 70
     1
 10
0.0
 20
0.0
 30
0.0
  3
*D4
  1

  0
LINE
  5
42C
330
42B
100
AcDbEntity
  8
1
  6
Continuous
 62
     2
100
AcDbLine
 10
67.5452957337215
 20
103.892378066361
 30
0.0
 11
67.5452957337215
 21
144.3972417059067
 31
0.0
  0
LINE
  5
42D
330
42B
100
AcDbEntity
  8
1
  6
Continuous
 62
     2
100
AcDbLine
 10
93.04529573372152
 20
144.3972417059067
 30
0.0
 11
66.5452957337215
 21
144.3972417059067
 31
0.0
  0
LINE
  5
42E
330
42B
100
AcDbEntity
  8
1
  6
Continuous
 62
     2
100
AcDbLine
 10
87.04529573372152
 20
103.892378066361
 30
0.0
 11
66.5452957337215
 21
103.892378066361
 31
0.0
  0
SOLID
  5
42F
330
42B
100
AcDbEntity
  8
1
 62
     2
100
AcDbTrace
 10
67.15033824095931
 20
106.892378066361
 30
0.0
 11
67.94025322648369
 21
106.892378066361
 31
0.0
 12
67.5452957337215
 22
103.892378066361
 32
0.0
 13
67.5452957337215
 23
103.892378066361
 33
0.0
  0
SOLID
  5
430
330
42B
100
AcDbEntity
  8
1
 62
     2
100
AcDbTrace
 10
67.94025322648369
 20
141.3972417059067
 30
0.0
 11
67.15033824095931
 21
141.3972417059067
 31
0.0
 12
67.5452957337215
 22
144.3972417059067
 32
0.0
 13
67.5452957337215
 23
144.3972417059067
 33
0.0
  0
MTEXT
  5
431
330
42B
100
AcDbEntity
  8
1
 62
     4
100
AcDbMText
 10
65.24529573372153
 20
120.0198098861339
 30
0.0
 40
3.0
 41
0.0
 71
     7
 72
     1
  1
40,5
  7
CONVERTER_13
 11
0.0
 21
1.0
 31
0.0
 73
     1
 44
0.60024009603842
  0
ENDBLK
  5
433
330
42B
100
AcDbEntity
  8
0
100
AcDbBlockEnd
  0
BLOCK
  5
43D
330
436
100
AcDbEntity
  8
0
100
AcDbBlockBegin
  2
*D5
 70
     1
 10
0.0
 20
0.0
 30
0.0
  3
*D5
  1

  0
LINE
  5
437
330
436
100
AcDbEntity
  8
1
  6
Continuous
 62
     2
100
AcDbLine
 10
159.5452957337215
 20
127.892378543199
 30
0.0
 11
159.5452957337215
 21
103.892377589524
 31
0.0
  0
LINE
  5
438
330
436
100
AcDbEntity
  8
1
  6
Continuous
 62
     2
100
AcDbLine
 10
143.7452955429196
 20
103.892377589524
 30
0.0
 11
160.5452957337215
 21
103.892377589524
 31
0.0
  0
LINE
  5
439
330
436
100
AcDbEntity
  8
1
  6
Continuous
 62
     2
100
AcDbLine
 10
143.7452955429196
 20
127.892378543199
 30
0.0
 11
160.5452957337215
 21
127.892378543199
 31
0.0
  0
SOLID
  5
43A
330
436
100
AcDbEntity
  8
1
 62
     2
100
AcDbTrace
 10
159.9402532264837
 20
124.892378543199
 30
0.0
 11
159.1503382409593
 21
124.892378543199
 31
0.0
 12
159.5452957337215
 22
127.892378543199
 32
0.0
 13
159.5452957337215
 23
127.892378543199
 33
0.0
  0
SOLID
  5
43B
330
436
100
AcDbEntity
  8
1
 62
     2
100
AcDbTrace
 10
159.1503382409593
 20
106.892377589524
 30
0.0
 11
159.9402532264837
 21
106.892377589524
 31
0.0
 12
159.5452957337215
 22
103.892377589524
 32
0.0
 13
159.5452957337215
 23
103.892377589524
 33
0.0
  0
MTEXT
  5
43C
330
436
100
AcDbEntity
  8
1
 62
     4
100
AcDbMText
 10
157.5452957337215
 20
113.6423780663615
 30
0.0
 40
3.0
 41
0.0
 71
     7
 72
     1
  1
24
  7
CONVERTER_13
 11
0.0
 21
1.0
 31
0.0
 73
     1
 44
0.60024009603842
  0
ENDBLK
  5
43E
330
436
100
AcDbEntity
  8
0
100
AcDbBlockEnd
  0
BLOCK
  5
448
330
441
100
AcDbEntity
  8
0
100
AcDbBlockBegin
  2
*D6
 70
     1
 10
0.0
 20
0.0
 30
0.0
  3
*D6
  1

  0
LINE
  5
442
330
441
100
AcDbEntity
  8
1
  6
Continuous
 62
     2
100
AcDbLine
 10
87.54529573372149
 20
88.892378066361
 30
0.0
 11
144.5452957336535
 21
88.892378066361
 31
0.0
  0
LINE
  5
443
330
441
100
AcDbEntity
  8
1
  6
Continuous
 62
     2
100
AcDbLine
 10
144.5452957336535
 20
103.892378066361
 30
0.0
 11
144.5452957336535
 21
87.892378066361
 31
0.0
  0
LINE
  5
444
330
441
100
AcDbEntity
  8
1
  6
Continuous
 62
     2
100
AcDbLine
 10
87.54529573372149
 20
103.392378066361
 30
0.0
 11
87.54529573372149
 21
87.892378066361
 31
0.0
  0
SOLID
  5
445
330
441
100
AcDbEntity
  8
1
 62
     2
100
AcDbTrace
 10
90.54529573372149
 20
89.28733555912319
 30
0.0
 11
90.54529573372149
 21
88.49742057359882
 31
0.0
 12
87.54529573372149
 22
88.892378066361
 32
0.0
 13
87.54529573372149
 23
88.892378066361
 33
0.0
  0
SOLID
  5
446
330
441
100
AcDbEntity
  8
1
 62
     2
100
AcDbTrace
 10
141.5452957336535
 20
88.49742057359882
 30
0.0
 11
141.5452957336535
 21
89.28733555912319
 31
0.0
 12
144.5452957336535
 22
88.892378066361
 32
0.0
 13
144.5452957336535
 23
88.892378066361
 33
0.0
  0
MTEXT
  5
447
330
441
100
AcDbEntity
  8
1
 62
     4
100
AcDbMText
 10
113.7952957336875
 20
90.892378066361
 30
0.0
 40
3.0
 41
0.0
 71
     7
 72
     1
  1
57
  7
CONVERTER_13
 11
0.9999999999970619
 21
2.424068405545306E-6
 31
0.0
 73
     1
 44
0.60024009603842
  0
ENDBLK
  5
449
330
441
100
AcDbEntity
  8
0
100
AcDbBlockEnd
  0
BLOCK
  5
453
330
44C
100
AcDbEntity
  8
0
100
AcDbBlockBegin
  2
*D7
 70
     1
 10
0.0
 20
0.0
 30
0.0
  3
*D7
  1

  0
LINE
  5
44D
330
44C
100
AcDbEntity
  8
1
  6
Continuous
 62
     2
100
AcDbLine
 10
159.5452957337215
 20
219.136502547469
 30
0.0
 11
159.5452957337215
 21
200.164502547468
 31
0.0
  0
LINE
  5
44E
330
44C
100
AcDbEntity
  8
1
  6
Continuous
 62
     2
100
AcDbLine
 10
145.0545659789257
 20
200.164502547468
 30
0.0
 11
160.5452957337215
 21
200.164502547468
 31
0.0
  0
LINE
  5
44F
330
44C
100
AcDbEntity
  8
1
  6
Continuous
 62
     2
100
AcDbLine
 10
145.0545659789257
 20
219.136502547469
 30
0.0
 11
160.5452957337215
 21
219.136502547469
 31
0.0
  0
SOLID
  5
450
330
44C
100
AcDbEntity
  8
1
 62
     2
100
AcDbTrace
 10
159.9402532264837
 20
216.136502547469
 30
0.0
 11
159.1503382409593
 21
216.136502547469
 31
0.0
 12
159.5452957337215
 22
219.136502547469
 32
0.0
 13
159.5452957337215
 23
219.136502547469
 33
0.0
  0
SOLID
  5
451
330
44C
100
AcDbEntity
  8
1
 62
     2
100
AcDbTrace
 10
159.1503382409593
 20
203.164502547468
 30
0.0
 11
159.9402532264837
 21
203.164502547468
 31
0.0
 12
159.5452957337215
 22
200.164502547468
 32
0.0
 13
159.5452957337215
 23
200.164502547468
 33
0.0
  0
MTEXT
  5
452
330
44C
100
AcDbEntity
  8
1
 62
     4
100
AcDbMText
 10
157.5452957337215
 20
205.4505025474685
 30
0.0
 40
3.0
 41
0.0
 71
     7
 72
     1
  1
PG11
  7
CONVERTER_13
 11
0.0
 21
1.0
 31
0.0
 73
     1
 44
0.60024009603842
  0
ENDBLK
  5
454
330
44C
100
AcDbEntity
  8
0
100
AcDbBlockEnd
  0
ENDSEC
  0
SECTION
  2
ENTITIES
  0
INSERT
  5
51
330
1F
100
AcDbEntity
  8
0
100
AcDbBlockReference
  2
A4
 10
210.0000000000001
 20
0.0
 30
0.0
  0
POINT
  5
AD
330
1F
100
AcDbEntity
  8
Bemaßungen_TC_020513_DIN_
 62
     7
100
AcDbPoint
 10
93.5452957337215
 20
103.892378066361
 30
0.0
  0
POINT
  5
AE
330
1F
100
AcDbEntity
  8
Bemaßungen_TC_020513_DIN_
 62
     7
100
AcDbPoint
 10
133.8319974189395
 20
103.892378066361
 30
0.0
  0
POINT
  5
AF
330
1F
100
AcDbEntity
  8
Bemaßungen_TC_020513_DIN_
 62
     7
100
AcDbPoint
 10
133.8319974189395
 20
127.892378066361
 30
0.0
  0
POINT
  5
B0
330
1F
100
AcDbEntity
  8
Bemaßungen_TC_020513_DIN_
 62
     7
100
AcDbPoint
 10
81.94964389009499
 20
193.150502547472
 30
0.0
  0
POINT
  5
B1
330
1F
100
AcDbEntity
  8
Bemaßungen_TC_020513_DIN_
 62
     7
100
AcDbPoint
 10
81.94964389009499
 20
226.150502547472
 30
0.0
  0
POINT
  5
B2
330
1F
100
AcDbEntity
  8
Bemaßungen_TC_020513_DIN_
 62
     7
100
AcDbPoint
 10
144.5452957336535
 20
104.392378066361
 30
0.0
  0
POINT
  5
B3
330
1F
100
AcDbEntity
  8
Bemaßungen_TC_020513_DIN_
 62
     7
100
AcDbPoint
 10
87.5452957337215
 20
105.892378066361
 30
0.0
  0
LINE
  5
B4
330
1F
100
AcDbEntity
  8
1
  6
Continuous
 62
     4
100
AcDbLine
 10
157.3060899558328
 20
110.268354565777
 30
0.0
 11
157.3060899558328
 21
112.168354565777
 31
0.0
  0
LINE
  5
B5
330
1F
100
AcDbEntity
  8
1
  6
Continuous
 62
     4
100
AcDbLine
 10
154.9060899558327
 20
111.668354565777
 30
0.0
 11
154.9060899558327
 21
109.768354565777
 31
0.0
  0
LINE
  5
B6
330
1F
100
AcDbEntity
  8
1
  6
Continuous
 62
     4
100
AcDbLine
 10
154.4060899558327
 20
111.9600212324438
 30
0.0
 11
157.8060899558328
 21
109.9766878991102
 31
0.0
  0
LINE
  5
B7
330
1F
100
AcDbEntity
  8
1
  6
Continuous
 62
     4
100
AcDbLine
 10
157.3060899558328
 20
112.168354565777
 30
0.0
 11
154.9060899558327
 21
112.168354565777
 31
0.0
  0
LINE
  5
B8
330
1F
100
AcDbEntity
  8
1
  6
Continuous
 62
     4
100
AcDbLine
 10
157.3060899558328
 20
109.768354565777
 30
0.0
 11
157.3060899558328
 21
110.268354565777
 31
0.0
  0
LINE
  5
B9
330
1F
100
AcDbEntity
  8
1
  6
Continuous
 62
     4
100
AcDbLine
 10
154.9060899558327
 20
109.768354565777
 30
0.0
 11
157.3060899558328
 21
109.768354565777
 31
0.0
  0
LINE
  5
BA
330
1F
100
AcDbEntity
  8
1
  6
Continuous
 62
     4
100
AcDbLine
 10
154.9060899558327
 20
112.168354565777
 30
0.0
 11
154.9060899558327
 21
111.668354565777
 31
0.0
  0
LINE
  5
BB
330
1F
100
AcDbEntity
  8
1
  6
Continuous
 62
     2
100
AcDbLine
 10
144.5502539940788
 20
200.164502547468
 30
0.0
 11
144.5545659789257
 21
200.164502547468
 31
0.0
  0
LINE
  5
BC
330
1F
100
AcDbEntity
  8
1
  6
Continuous
 62
     2
100
AcDbLine
 10
144.5502539940788
 20
219.136502547469
 30
0.0
 11
144.5545659789257
 21
219.136502547469
 31
0.0
  0
LINE
  5
30F
330
1F
100
AcDbEntity
  8
Sichtbare_Kanten_TC_020513_DIN_
  6
Continuous
 62
     7
100
AcDbLine
 10
78.49459879047822
 20
223.400502547473
 30
0.0
 11
78.49459879047822
 21
222.677852816663
 31
0.0
  0
LINE
  5
310
330
1F
100
AcDbEntity
  8
Sichtbare_Kanten_TC_020513_DIN_
  6
Continuous
 62
     7
100
AcDbLine
 10
84.79459879047823
 20
223.400502547473
 30
0.0
 11
84.79459879047823
 21
222.677852816663
 31
0.0
  0
LINE
  5
311
330
1F
100
AcDbEntity
  8
Sichtbare_Kanten_TC_020513_DIN_
  6
Continuous
 62
     7
100
AcDbLine
 10
76.1445987904782
 20
224.850502547473
 30
0.0
 11
76.1445987904782
 21
223.650502547473
 31
0.0
  0
LINE
  5
312
330
1F
100
AcDbEntity
  8
Sichtbare_Kanten_TC_020513_DIN_
  6
Continuous
 62
     7
100
AcDbLine
 10
87.1445987904782
 20
224.850502547473
 30
0.0
 11
87.1445987904782
 21
223.650502547473
 31
0.0
  0
LINE
  5
313
330
1F
100
AcDbEntity
  8
Sichtbare_Kanten_TC_020513_DIN_
  6
Continuous
 62
     7
100
AcDbLine
 10
133.8319974190065
 20
221.650502547466
 30
0.0
 11
87.54529573378903
 21
221.650502547466
 31
0.0
  0
LINE
  5
314
330
1F
100
AcDbEntity
  8
Sichtbare_Kanten_TC_020513_DIN_
  6
Continuous
 62
     7
100
AcDbLine
 10
87.54529573378903
 20
219.650502547465
 30
0.0
 11
87.54529573378903
 21
221.650502547466
 31
0.0
  0
LINE
  5
315
330
1F
100
AcDbEntity
  8
Sichtbare_Kanten_TC_020513_DIN_
  6
Continuous
 62
     7
100
AcDbLine
 10
87.54529573378903
 20
197.650502547466
 30
0.0
 11
87.54529573378903
 21
199.650502547465
 31
0.0
  0
LINE
  5
316
330
1F
100
AcDbEntity
  8
Sichtbare_Kanten_TC_020513_DIN_
  6
Continuous
 62
     7
100
AcDbLine
 10
87.54529573378903
 20
197.650502547466
 30
0.0
 11
133.8319974190065
 21
197.650502547466
 31
0.0
  0
LINE
  5
317
330
1F
100
AcDbEntity
  8
Sichtbare_Kanten_TC_020513_DIN_
  6
Continuous
 62
     7
100
AcDbLine
 10
91.54529573378903
 20
223.150502547469
 30
0.0
 11
91.54529573378903
 21
222.950502547469
 31
0.0
  0
LINE
  5
318
330
1F
100
AcDbEntity
  8
Sichtbare_Kanten_TC_020513_DIN_
  6
Continuous
 62
     7
100
AcDbLine
 10
91.54529573378903
 20
225.650502547469
 30
0.0
 11
91.54529573378903
 21
224.150502547469
 31
0.0
  0
LINE
  5
319
330
1F
100
AcDbEntity
  8
Sichtbare_Kanten_TC_020513_DIN_
  6
Continuous
 62
     7
100
AcDbLine
 10
95.54529573378903
 20
223.150502547469
 30
0.0
 11
95.54529573378903
 21
222.950502547469
 31
0.0
  0
LINE
  5
31A
330
1F
100
AcDbEntity
  8
Sichtbare_Kanten_TC_020513_DIN_
  6
Continuous
 62
     7
100
AcDbLine
 10
95.54529573378903
 20
224.350502547469
 30
0.0
 11
95.54529573378903
 21
224.150502547469
 31
0.0
  0
LINE
  5
31B
330
1F
100
AcDbEntity
  8
Sichtbare_Kanten_TC_020513_DIN_
  6
Continuous
 62
     7
100
AcDbLine
 10
90.54529573378903
 20
221.950502547469
 30
0.0
 11
90.54529573378903
 21
221.650502547469
 31
0.0
  0
LINE
  5
31C
330
1F
100
AcDbEntity
  8
Sichtbare_Kanten_TC_020513_DIN_
  6
Continuous
 62
     7
100
AcDbLine
 10
96.54529573378903
 20
221.950502547469
 30
0.0
 11
96.54529573378903
 21
221.650502547469
 31
0.0
  0
LINE
  5
31D
330
1F
100
AcDbEntity
  8
Sichtbare_Kanten_TC_020513_DIN_
  6
Continuous
 62
     7
100
AcDbLine
 10
91.54529573378903
 20
225.650502547469
 30
0.0
 11
94.54529573378903
 21
225.650502547469
 31
0.0
  0
LINE
  5
31E
330
1F
100
AcDbEntity
  8
Sichtbare_Kanten_TC_020513_DIN_
  6
Continuous
 62
     7
100
AcDbLine
 10
91.54529573378903
 20
222.950502547469
 30
0.0
 11
90.54529573378903
 21
221.950502547469
 31
0.0
  0
LINE
  5
31F
330
1F
100
AcDbEntity
  8
Sichtbare_Kanten_TC_020513_DIN_
  6
Continuous
 62
     7
100
AcDbLine
 10
95.54529573378903
 20
222.950502547469
 30
0.0
 11
96.54529573378903
 21
221.950502547469
 31
0.0
  0
LINE
  5
320
330
1F
100
AcDbEntity
  8
Sichtbare_Kanten_TC_020513_DIN_
  6
Continuous
 62
     7
100
AcDbLine
 10
96.54529573378903
 20
221.950502547469
 30
0.0
 11
90.54529573378903
 21
221.950502547469
 31
0.0
  0
LINE
  5
321
330
1F
100
AcDbEntity
  8
Sichtbare_Kanten_TC_020513_DIN_
  6
Continuous
 62
     7
100
AcDbLine
 10
91.54529573378903
 20
222.950502547469
 30
0.0
 11
95.54529573378903
 21
222.950502547469
 31
0.0
  0
LINE
  5
322
330
1F
100
AcDbEntity
  8
Sichtbare_Kanten_TC_020513_DIN_
  6
Continuous
 62
     7
100
AcDbLine
 10
91.54529573378903
 20
195.150502547469
 30
0.0
 11
91.54529573378903
 21
193.650502547469
 31
0.0
  0
LINE
  5
323
330
1F
100
AcDbEntity
  8
Sichtbare_Kanten_TC_020513_DIN_
  6
Continuous
 62
     7
100
AcDbLine
 10
91.54529573378903
 20
196.350502547469
 30
0.0
 11
91.54529573378903
 21
196.150502547469
 31
0.0
  0
LINE
  5
324
330
1F
100
AcDbEntity
  8
Sichtbare_Kanten_TC_020513_DIN_
  6
Continuous
 62
     7
100
AcDbLine
 10
95.54529573378903
 20
195.150502547469
 30
0.0
 11
95.54529573378903
 21
194.950502547469
 31
0.0
  0
LINE
  5
325
330
1F
100
AcDbEntity
  8
Sichtbare_Kanten_TC_020513_DIN_
  6
Continuous
 62
     7
100
AcDbLine
 10
95.54529573378903
 20
196.350502547469
 30
0.0
 11
95.54529573378903
 21
196.150502547469
 31
0.0
  0
LINE
  5
326
330
1F
100
AcDbEntity
  8
Sichtbare_Kanten_TC_020513_DIN_
  6
Continuous
 62
     7
100
AcDbLine
 10
90.54529573378903
 20
197.650502547469
 30
0.0
 11
90.54529573378903
 21
197.350502547469
 31
0.0
  0
LINE
  5
327
330
1F
100
AcDbEntity
  8
Sichtbare_Kanten_TC_020513_DIN_
  6
Continuous
 62
     7
100
AcDbLine
 10
96.54529573378903
 20
197.650502547469
 30
0.0
 11
96.54529573378903
 21
197.350502547469
 31
0.0
  0
LINE
  5
328
330
1F
100
AcDbEntity
  8
Sichtbare_Kanten_TC_020513_DIN_
  6
Continuous
 62
     7
100
AcDbLine
 10
95.54529573378903
 20
196.350502547469
 30
0.0
 11
96.54529573378903
 21
197.350502547469
 31
0.0
  0
LINE
  5
329
330
1F
100
AcDbEntity
  8
Sichtbare_Kanten_TC_020513_DIN_
  6
Continuous
 62
     7
100
AcDbLine
 10
91.54529573378903
 20
196.350502547469
 30
0.0
 11
90.54529573378903
 21
197.350502547469
 31
0.0
  0
LINE
  5
32A
330
1F
100
AcDbEntity
  8
Sichtbare_Kanten_TC_020513_DIN_
  6
Continuous
 62
     7
100
AcDbLine
 10
91.54529573378903
 20
193.650502547469
 30
0.0
 11
94.54529573378903
 21
193.650502547469
 31
0.0
  0
LINE
  5
32B
330
1F
100
AcDbEntity
  8
Sichtbare_Kanten_TC_020513_DIN_
  6
Continuous
 62
     7
100
AcDbLine
 10
91.54529573378903
 20
196.350502547469
 30
0.0
 11
95.54529573378903
 21
196.350502547469
 31
0.0
  0
LINE
  5
32C
330
1F
100
AcDbEntity
  8
Sichtbare_Kanten_TC_020513_DIN_
  6
Continuous
 62
     7
100
AcDbLine
 10
90.54529573378903
 20
197.350502547469
 30
0.0
 11
96.54529573378903
 21
197.350502547469
 31
0.0
  0
LINE
  5
32D
330
1F
100
AcDbEntity
  8
Sichtbare_Kanten_TC_020513_DIN_
  6
Continuous
 62
     7
100
AcDbLine
 10
96.77734654135793
 20
225.650502547469
 30
0.0
 11
96.77734654135793
 21
224.350502547469
 31
0.0
  0
LINE
  5
32E
330
1F
100
AcDbEntity
  8
Sichtbare_Kanten_TC_020513_DIN_
  6
Continuous
 62
     7
100
AcDbLine
 10
94.54529573378903
 20
225.650502547469
 30
0.0
 11
96.27734654135793
 21
225.650502547469
 31
0.0
  0
LINE
  5
32F
330
1F
100
AcDbEntity
  8
Sichtbare_Kanten_TC_020513_DIN_
  6
Continuous
 62
     7
100
AcDbLine
 10
94.54529573378903
 20
224.350502547469
 30
0.0
 11
96.27734654135793
 21
224.350502547469
 31
0.0
  0
LINE
  5
330
330
1F
100
AcDbEntity
  8
Sichtbare_Kanten_TC_020513_DIN_
  6
Continuous
 62
     7
100
AcDbLine
 10
96.77734654135793
 20
225.650502547469
 30
0.0
 11
96.27734654135793
 21
225.650502547469
 31
0.0
  0
LINE
  5
331
330
1F
100
AcDbEntity
  8
Sichtbare_Kanten_TC_020513_DIN_
  6
Continuous
 62
     7
100
AcDbLine
 10
96.77734654135793
 20
224.350502547469
 30
0.0
 11
96.27734654135793
 21
224.350502547469
 31
0.0
  0
LINE
  5
332
330
1F
100
AcDbEntity
  8
Sichtbare_Kanten_TC_020513_DIN_
  6
Continuous
 62
     7
100
AcDbLine
 10
96.77734654135793
 20
194.950502547469
 30
0.0
 11
96.77734654135793
 21
193.650502547469
 31
0.0
  0
LINE
  5
333
330
1F
100
AcDbEntity
  8
Sichtbare_Kanten_TC_020513_DIN_
  6
Continuous
 62
     7
100
AcDbLine
 10
94.54529573378903
 20
193.650502547469
 30
0.0
 11
96.27734654135793
 21
193.650502547469
 31
0.0
  0
LINE
  5
334
330
1F
100
AcDbEntity
  8
Sichtbare_Kanten_TC_020513_DIN_
  6
Continuous
 62
     7
100
AcDbLine
 10
94.54529573378903
 20
194.950502547468
 30
0.0
 11
96.27734654135793
 21
194.950502547469
 31
0.0
  0
LINE
  5
335
330
1F
100
AcDbEntity
  8
Sichtbare_Kanten_TC_020513_DIN_
  6
Continuous
 62
     7
100
AcDbLine
 10
96.77734654135793
 20
193.650502547469
 30
0.0
 11
96.27734654135793
 21
193.650502547469
 31
0.0
  0
LINE
  5
336
330
1F
100
AcDbEntity
  8
Sichtbare_Kanten_TC_020513_DIN_
  6
Continuous
 62
     7
100
AcDbLine
 10
96.77734654135793
 20
194.950502547469
 30
0.0
 11
96.27734654135793
 21
194.950502547469
 31
0.0
  0
LINE
  5
337
330
1F
100
AcDbEntity
  8
Sichtbare_Kanten_TC_020513_DIN_
  6
Continuous
 62
     7
100
AcDbLine
 10
87.54529573378903
 20
219.650502547465
 30
0.0
 11
87.54529573378903
 21
199.650502547465
 31
0.0
  0
LINE
  5
338
330
1F
100
AcDbEntity
  8
Sichtbare_Kanten_TC_020513_DIN_
  6
Continuous
 62
     7
100
AcDbLine
 10
144.5452957337215
 20
221.150502547469
 30
0.0
 11
143.2452957337935
 21
221.650502547442
 31
0.0
  0
LINE
  5
339
330
1F
100
AcDbEntity
  8
Sichtbare_Kanten_TC_020513_DIN_
  6
Continuous
 62
     7
100
AcDbLine
 10
144.5452957337215
 20
198.150502547469
 30
0.0
 11
143.2452957337935
 21
197.650502547497
 31
0.0
  0
LINE
  5
33A
330
1F
100
AcDbEntity
  8
Sichtbare_Kanten_TC_020513_DIN_
  6
Continuous
 62
     7
100
AcDbLine
 10
133.8319959824395
 20
221.650503024303
 30
0.0
 11
143.2452955429865
 21
221.650503024306
 31
0.0
  0
LINE
  5
33B
330
1F
100
AcDbEntity
  8
Sichtbare_Kanten_TC_020513_DIN_
  6
Continuous
 62
     7
100
AcDbLine
 10
143.2452955429865
 20
197.650502070632
 30
0.0
 11
133.8319959824395
 21
197.650502070629
 31
0.0
  0
LINE
  5
33C
330
1F
100
AcDbEntity
  8
Sichtbare_Kanten_TC_020513_DIN_
  6
Continuous
 62
     7
100
AcDbLine
 10
144.5452957337215
 20
198.150502547469
 30
0.0
 11
144.5452957337215
 21
221.150502547469
 31
0.0
  0
LINE
  5
33D
330
1F
100
AcDbEntity
  8
Sichtbare_Kanten_TC_020513_DIN_
  6
Continuous
 62
     7
100
AcDbLine
 10
127.5452957337215
 20
209.650502547465
 30
0.0
 11
126.5095758579305
 21
208.900502547465
 31
0.0
  0
LINE
  5
33E
330
1F
100
AcDbEntity
  8
Sichtbare_Kanten_TC_020513_DIN_
  6
Continuous
 62
     7
100
AcDbLine
 10
126.5095758579305
 20
208.900502547465
 30
0.0
 11
129.1698150979635
 21
208.900502547465
 31
0.0
  0
LINE
  5
33F
330
1F
100
AcDbEntity
  8
Sichtbare_Kanten_TC_020513_DIN_
  6
Continuous
 62
     7
100
AcDbLine
 10
129.1698150979635
 20
208.400502547466
 30
0.0
 11
125.7380840617865
 21
208.400502547465
 31
0.0
  0
LINE
  5
340
330
1F
100
AcDbEntity
  8
Sichtbare_Kanten_TC_020513_DIN_
  6
Continuous
 62
     7
100
AcDbLine
 10
125.5914571279075
 20
208.852988453793
 30
0.0
 11
126.6927920586275
 21
209.650502547465
 31
0.0
  0
LINE
  5
341
330
1F
100
AcDbEntity
  8
Sichtbare_Kanten_TC_020513_DIN_
  6
Continuous
 62
     7
100
AcDbLine
 10
126.6927920586275
 20
209.650502547465
 30
0.0
 11
125.5914571279075
 21
210.448016641138
 31
0.0
  0
LINE
  5
342
330
1F
100
AcDbEntity
  8
Sichtbare_Kanten_TC_020513_DIN_
  6
Continuous
 62
     7
100
AcDbLine
 10
125.7380840617865
 20
210.900502547465
 30
0.0
 11
130.3525074056556
 21
210.900502547465
 31
0.0
  0
LINE
  5
343
330
1F
100
AcDbEntity
  8
Sichtbare_Kanten_TC_020513_DIN_
  6
Continuous
 62
     7
100
AcDbLine
 10
130.3525074056556
 20
210.400502547465
 30
0.0
 11
126.5095758579305
 21
210.400502547465
 31
0.0
  0
LINE
  5
344
330
1F
100
AcDbEntity
  8
Sichtbare_Kanten_TC_020513_DIN_
  6
Continuous
 62
     7
100
AcDbLine
 10
126.5095758579305
 20
210.400502547465
 30
0.0
 11
127.5452957337215
 21
209.650502547465
 31
0.0
  0
LINE
  5
345
330
1F
100
AcDbEntity
  8
Sichtbare_Kanten_TC_020513_DIN_
  6
Continuous
 62
     7
100
AcDbLine
 10
126.3438532925565
 20
207.850502547466
 30
0.0
 11
129.6023471937365
 21
207.850502547466
 31
0.0
  0
LINE
  5
346
330
1F
100
AcDbEntity
  8
Sichtbare_Kanten_TC_020513_DIN_
  6
Continuous
 62
     7
100
AcDbLine
 10
129.6023471937365
 20
207.850502547466
 30
0.0
 11
130.7128840860665
 21
209.775433160838
 31
0.0
  0
LINE
  5
347
330
1F
100
AcDbEntity
  8
Sichtbare_Kanten_TC_020513_DIN_
  6
Continuous
 62
     7
100
AcDbLine
 10
131.1459768790915
 20
209.525571934093
 30
0.0
 11
129.9632845713986
 21
207.475571934093
 31
0.0
  0
LINE
  5
348
330
1F
100
AcDbEntity
  8
Sichtbare_Kanten_TC_020513_DIN_
  6
Continuous
 62
     7
100
AcDbLine
 10
129.7467381748865
 20
207.350502547466
 30
0.0
 11
126.3438532925565
 21
207.350502547466
 31
0.0
  0
LINE
  5
349
330
1F
100
AcDbEntity
  8
Sichtbare_Kanten_TC_020513_DIN_
  6
Continuous
 62
     7
100
AcDbLine
 10
128.0452957337215
 20
203.150502547465
 30
0.0
 11
124.2952957337215
 21
209.650502547465
 31
0.0
  0
LINE
  5
34A
330
1F
100
AcDbEntity
  8
Sichtbare_Kanten_TC_020513_DIN_
  6
Continuous
 62
     7
100
AcDbLine
 10
124.2952957337215
 20
209.650502547465
 30
0.0
 11
128.0452957337215
 21
216.150502547465
 31
0.0
  0
LINE
  5
34B
330
1F
100
AcDbEntity
  8
Sichtbare_Kanten_TC_020513_DIN_
  6
Continuous
 62
     7
100
AcDbLine
 10
128.0452957337215
 20
216.150502547465
 30
0.0
 11
131.7952957337215
 21
209.650502547465
 31
0.0
  0
LINE
  5
34C
330
1F
100
AcDbEntity
  8
Sichtbare_Kanten_TC_020513_DIN_
  6
Continuous
 62
     7
100
AcDbLine
 10
131.7952957337215
 20
209.650502547465
 30
0.0
 11
128.0452957337215
 21
203.150502547465
 31
0.0
  0
LINE
  5
34D
330
1F
100
AcDbEntity
  8
Sichtbare_Kanten_TC_020513_DIN_
  6
Continuous
 62
     7
100
AcDbLine
 10
124.5839174841025
 20
209.650502547465
 30
0.0
 11
128.0452957337215
 21
203.650780248126
 31
0.0
  0
LINE
  5
34E
330
1F
100
AcDbEntity
  8
Sichtbare_Kanten_TC_020513_DIN_
  6
Continuous
 62
     7
100
AcDbLine
 10
128.0452957337215
 20
215.650224846805
 30
0.0
 11
124.5839174841025
 21
209.650502547465
 31
0.0
  0
LINE
  5
34F
330
1F
100
AcDbEntity
  8
Sichtbare_Kanten_TC_020513_DIN_
  6
Continuous
 62
     7
100
AcDbLine
 10
131.5066739833405
 20
209.650502547465
 30
0.0
 11
128.0452957337215
 21
215.650224846805
 31
0.0
  0
LINE
  5
350
330
1F
100
AcDbEntity
  8
Sichtbare_Kanten_TC_020513_DIN_
  6
Continuous
 62
     7
100
AcDbLine
 10
128.0452957337215
 20
203.650780248126
 30
0.0
 11
131.5066739833405
 21
209.650502547465
 31
0.0
  0
LINE
  5
351
330
1F
100
AcDbEntity
  8
Sichtbare_Kanten_TC_020513_DIN_
  6
Continuous
 62
     7
100
AcDbLine
 10
126.9207763694795
 20
206.850502547466
 30
0.0
 11
129.1698150979635
 21
206.850502547466
 31
0.0
  0
LINE
  5
352
330
1F
100
AcDbEntity
  8
Sichtbare_Kanten_TC_020513_DIN_
  6
Continuous
 62
     7
100
AcDbLine
 10
129.1698150979635
 20
206.350502547466
 30
0.0
 11
126.9207763694795
 21
206.350502547466
 31
0.0
  0
LINE
  5
353
330
1F
100
AcDbEntity
  8
Sichtbare_Kanten_TC_020513_DIN_
  6
Continuous
 62
     7
100
AcDbLine
 10
126.0984607421985
 20
211.775433160838
 30
0.0
 11
126.6753838191215
 21
212.775433160838
 31
0.0
  0
LINE
  5
354
330
1F
100
AcDbEntity
  8
Sichtbare_Kanten_TC_020513_DIN_
  6
Continuous
 62
     7
100
AcDbLine
 10
127.1084766121455
 20
212.525571934093
 30
0.0
 11
126.7478596583215
 21
211.900502547465
 31
0.0
  0
LINE
  5
355
330
1F
100
AcDbEntity
  8
Sichtbare_Kanten_TC_020513_DIN_
  6
Continuous
 62
     7
100
AcDbLine
 10
126.7478596583215
 20
211.900502547465
 30
0.0
 11
127.7952957337215
 21
211.900502547465
 31
0.0
  0
LINE
  5
356
330
1F
100
AcDbEntity
  8
Sichtbare_Kanten_TC_020513_DIN_
  6
Continuous
 62
     7
100
AcDbLine
 10
127.7952957337215
 20
211.900502547465
 30
0.0
 11
127.7952957337215
 21
212.650502547465
 31
0.0
  0
LINE
  5
357
330
1F
100
AcDbEntity
  8
Sichtbare_Kanten_TC_020513_DIN_
  6
Continuous
 62
     7
100
AcDbLine
 10
128.2952957337215
 20
212.650502547465
 30
0.0
 11
128.2952957337215
 21
211.900502547465
 31
0.0
  0
LINE
  5
358
330
1F
100
AcDbEntity
  8
Sichtbare_Kanten_TC_020513_DIN_
  6
Continuous
 62
     7
100
AcDbLine
 10
128.2952957337215
 20
211.900502547465
 30
0.0
 11
129.3427318091215
 21
211.900502547465
 31
0.0
  0
LINE
  5
359
330
1F
100
AcDbEntity
  8
Sichtbare_Kanten_TC_020513_DIN_
  6
Continuous
 62
     7
100
AcDbLine
 10
129.3427318091215
 20
211.900502547465
 30
0.0
 11
128.9821148552975
 21
212.525571934093
 31
0.0
  0
LINE
  5
35A
330
1F
100
AcDbEntity
  8
Sichtbare_Kanten_TC_020513_DIN_
  6
Continuous
 62
     7
100
AcDbLine
 10
129.4152076483215
 20
212.775433160838
 30
0.0
 11
129.9921307252445
 21
211.775433160838
 31
0.0
  0
LINE
  5
35B
330
1F
100
AcDbEntity
  8
Sichtbare_Kanten_TC_020513_DIN_
  6
Continuous
 62
     7
100
AcDbLine
 10
129.7755843287325
 20
211.400502547465
 30
0.0
 11
126.3150071387105
 21
211.400502547465
 31
0.0
  0
LINE
  5
35C
330
1F
100
AcDbEntity
  8
Sichtbare_Kanten_TC_020513_DIN_
  6
Continuous
 62
     7
100
AcDbLine
 10
83.3945987904782
 20
226.150502547473
 30
0.0
 11
83.3945987904782
 21
227.100502547473
 31
0.0
  0
LINE
  5
35D
330
1F
100
AcDbEntity
  8
Sichtbare_Kanten_TC_020513_DIN_
  6
Continuous
 62
     7
100
AcDbLine
 10
79.8945987904782
 20
226.150502547473
 30
0.0
 11
79.8945987904782
 21
227.100502547473
 31
0.0
  0
LINE
  5
35E
330
1F
100
AcDbEntity
  8
Sichtbare_Kanten_TC_020513_DIN_
  6
Continuous
 62
     7
100
AcDbLine
 10
83.3945987904782
 20
225.100502547473
 30
0.0
 11
83.3945987904782
 21
225.150502547473
 31
0.0
  0
LINE
  5
35F
330
1F
100
AcDbEntity
  8
Sichtbare_Kanten_TC_020513_DIN_
  6
Continuous
 62
     7
100
AcDbLine
 10
79.8945987904782
 20
225.100502547473
 30
0.0
 11
79.8945987904782
 21
225.150502547473
 31
0.0
  0
LINE
  5
360
330
1F
100
AcDbEntity
  8
Sichtbare_Kanten_TC_020513_DIN_
  6
Continuous
 62
     7
100
AcDbLine
 10
79.8945987904782
 20
227.100502547473
 30
0.0
 11
83.3945987904782
 21
227.100502547473
 31
0.0
  0
LINE
  5
361
330
1F
100
AcDbEntity
  8
Sichtbare_Kanten_TC_020513_DIN_
  6
Continuous
 62
     7
100
AcDbLine
 10
83.79459879047823
 20
222.100502547473
 30
0.0
 11
84.79459879047823
 21
222.677852816663
 31
0.0
  0
LINE
  5
362
330
1F
100
AcDbEntity
  8
Sichtbare_Kanten_TC_020513_DIN_
  6
Continuous
 62
     7
100
AcDbLine
 10
79.49459879047822
 20
222.100502547473
 30
0.0
 11
78.49459879047822
 21
222.677852816663
 31
0.0
  0
LINE
  5
363
330
1F
100
AcDbEntity
  8
Sichtbare_Kanten_TC_020513_DIN_
  6
Continuous
 62
     7
100
AcDbLine
 10
78.49459879047822
 20
222.677852816663
 30
0.0
 11
84.79459879047823
 21
222.677852816663
 31
0.0
  0
LINE
  5
364
330
1F
100
AcDbEntity
  8
Sichtbare_Kanten_TC_020513_DIN_
  6
Continuous
 62
     7
100
AcDbLine
 10
83.79459879047823
 20
222.100502547473
 30
0.0
 11
79.49459879047822
 21
222.100502547473
 31
0.0
  0
LINE
  5
365
330
1F
100
AcDbEntity
  8
Sichtbare_Kanten_TC_020513_DIN_
  6
Continuous
 62
     7
100
AcDbLine
 10
86.8945987904782
 20
223.400502547473
 30
0.0
 11
87.1445987904782
 21
223.650502547473
 31
0.0
  0
LINE
  5
366
330
1F
100
AcDbEntity
  8
Sichtbare_Kanten_TC_020513_DIN_
  6
Continuous
 62
     7
100
AcDbLine
 10
76.3945987904782
 20
223.400502547473
 30
0.0
 11
76.1445987904782
 21
223.650502547473
 31
0.0
  0
LINE
  5
367
330
1F
100
AcDbEntity
  8
Sichtbare_Kanten_TC_020513_DIN_
  6
Continuous
 62
     7
100
AcDbLine
 10
76.3945987904782
 20
225.100502547473
 30
0.0
 11
76.1445987904782
 21
224.850502547473
 31
0.0
  0
LINE
  5
368
330
1F
100
AcDbEntity
  8
Sichtbare_Kanten_TC_020513_DIN_
  6
Continuous
 62
     7
100
AcDbLine
 10
86.8945987904782
 20
225.100502547473
 30
0.0
 11
87.1445987904782
 21
224.850502547473
 31
0.0
  0
LINE
  5
369
330
1F
100
AcDbEntity
  8
Sichtbare_Kanten_TC_020513_DIN_
  6
Continuous
 62
     7
100
AcDbLine
 10
86.8945987904782
 20
223.400502547473
 30
0.0
 11
76.3945987904782
 21
223.400502547473
 31
0.0
  0
LINE
  5
36A
330
1F
100
AcDbEntity
  8
Sichtbare_Kanten_TC_020513_DIN_
  6
Continuous
 62
     7
100
AcDbLine
 10
76.1445987904782
 20
223.650502547473
 30
0.0
 11
87.1445987904782
 21
223.650502547473
 31
0.0
  0
LINE
  5
36B
330
1F
100
AcDbEntity
  8
Sichtbare_Kanten_TC_020513_DIN_
  6
Continuous
 62
     7
100
AcDbLine
 10
76.3945987904782
 20
225.100502547473
 30
0.0
 11
86.8945987904782
 21
225.100502547473
 31
0.0
  0
LINE
  5
36C
330
1F
100
AcDbEntity
  8
Sichtbare_Kanten_TC_020513_DIN_
  6
Continuous
 62
     7
100
AcDbLine
 10
87.1445987904782
 20
224.850502547473
 30
0.0
 11
76.1445987904782
 21
224.850502547473
 31
0.0
  0
LINE
  5
36D
330
1F
100
AcDbEntity
  8
Sichtbare_Kanten_TC_020513_DIN_
  6
Continuous
 62
     7
100
AcDbLine
 10
87.19529573378901
 20
224.150502547469
 30
0.0
 11
97.05098537619904
 21
224.150502547468
 31
0.0
  0
LINE
  5
36E
330
1F
100
AcDbEntity
  8
Sichtbare_Kanten_TC_020513_DIN_
  6
Continuous
 62
     7
100
AcDbLine
 10
97.05098537619904
 20
224.150502547468
 30
0.0
 11
103.2584565986781
 21
224.150502547471
 31
0.0
  0
LINE
  5
36F
330
1F
100
AcDbEntity
  8
Sichtbare_Kanten_TC_020513_DIN_
  6
Continuous
 62
     7
100
AcDbLine
 10
103.1440824602501
 20
226.150502547473
 30
0.0
 11
101.1897313131291
 21
226.150502547471
 31
0.0
  0
LINE
  5
370
330
1F
100
AcDbEntity
  8
Sichtbare_Kanten_TC_020513_DIN_
  6
Continuous
 62
     7
100
AcDbLine
 10
78.1445987904782
 20
225.150502547473
 30
0.0
 11
78.1445987904782
 21
226.150502547473
 31
0.0
  0
LINE
  5
371
330
1F
100
AcDbEntity
  8
Sichtbare_Kanten_TC_020513_DIN_
  6
Continuous
 62
     7
100
AcDbLine
 10
87.19529573378901
 20
223.150502547469
 30
0.0
 11
87.19529573378901
 21
224.150502547469
 31
0.0
  0
LINE
  5
372
330
1F
100
AcDbEntity
  8
Sichtbare_Kanten_TC_020513_DIN_
  6
Continuous
 62
     7
100
AcDbLine
 10
103.3219058496261
 20
223.389493498532
 30
0.0
 11
103.3219058496261
 21
224.605137557074
 31
0.0
  0
LINE
  5
373
330
1F
100
AcDbEntity
  8
Sichtbare_Kanten_TC_020513_DIN_
  6
Continuous
 62
     7
100
AcDbLine
 10
88.77946082852912
 20
225.150502547472
 30
0.0
 11
88.77946082852912
 21
226.150502547472
 31
0.0
  0
LINE
  5
374
330
1F
100
AcDbEntity
  8
Sichtbare_Kanten_TC_020513_DIN_
  6
Continuous
 62
     7
100
AcDbLine
 10
97.05098537619904
 20
223.150502547468
 30
0.0
 11
87.19529573378901
 21
223.150502547469
 31
0.0
  0
LINE
  5
375
330
1F
100
AcDbEntity
  8
Sichtbare_Kanten_TC_020513_DIN_
  6
Continuous
 62
     7
100
AcDbLine
 10
90.54722778149551
 20
225.150502547475
 30
0.0
 11
90.54722778149551
 21
226.150502547472
 31
0.0
  0
LINE
  5
376
330
1F
100
AcDbEntity
  8
Sichtbare_Kanten_TC_020513_DIN_
  6
Continuous
 62
     7
100
AcDbLine
 10
103.2893264934211
 20
223.150502547471
 30
0.0
 11
97.05098537619904
 21
223.150502547468
 31
0.0
  0
LINE
  5
377
330
1F
100
AcDbEntity
  8
Sichtbare_Kanten_TC_020513_DIN_
  6
Continuous
 62
     7
100
AcDbLine
 10
101.1897313131291
 20
226.150502547471
 30
0.0
 11
90.54722778149551
 21
226.150502547472
 31
0.0
  0
LINE
  5
378
330
1F
100
AcDbEntity
  8
Sichtbare_Kanten_TC_020513_DIN_
  6
Continuous
 62
     7
100
AcDbLine
 10
90.54722778149551
 20
226.150502547472
 30
0.0
 11
88.77946082852912
 21
226.150502547472
 31
0.0
  0
LINE
  5
379
330
1F
100
AcDbEntity
  8
Sichtbare_Kanten_TC_020513_DIN_
  6
Continuous
 62
     7
100
AcDbLine
 10
88.77946082852912
 20
226.150502547472
 30
0.0
 11
88.08811454283443
 21
226.150502547472
 31
0.0
  0
LINE
  5
37A
330
1F
100
AcDbEntity
  8
Sichtbare_Kanten_TC_020513_DIN_
  6
Continuous
 62
     7
100
AcDbLine
 10
88.08811454283443
 20
226.150502547472
 30
0.0
 11
86.89672075693312
 21
226.150502547472
 31
0.0
  0
LINE
  5
37B
330
1F
100
AcDbEntity
  8
Sichtbare_Kanten_TC_020513_DIN_
  6
Continuous
 62
     7
100
AcDbLine
 10
86.89672075693312
 20
226.150502547472
 30
0.0
 11
81.94964389009499
 21
226.150502547472
 31
0.0
  0
LINE
  5
37C
330
1F
100
AcDbEntity
  8
Sichtbare_Kanten_TC_020513_DIN_
  6
Continuous
 62
     7
100
AcDbLine
 10
78.1445987904782
 20
226.150502547473
 30
0.0
 11
81.94964389009499
 21
226.150502547472
 31
0.0
  0
LINE
  5
37D
330
1F
100
AcDbEntity
  8
Sichtbare_Kanten_TC_020513_DIN_
  6
Continuous
 62
     7
100
AcDbLine
 10
87.19529573378901
 20
195.150502547469
 30
0.0
 11
87.19529573378901
 21
196.150502547469
 31
0.0
  0
LINE
  5
37E
330
1F
100
AcDbEntity
  8
Sichtbare_Kanten_TC_020513_DIN_
  6
Continuous
 62
     7
100
AcDbLine
 10
78.1445987904782
 20
193.150502547473
 30
0.0
 11
78.1445987904782
 21
194.150502547473
 31
0.0
  0
LINE
  5
37F
330
1F
100
AcDbEntity
  8
Sichtbare_Kanten_TC_020513_DIN_
  6
Continuous
 62
     7
100
AcDbLine
 10
83.3945987904782
 20
194.150502547473
 30
0.0
 11
83.3945987904782
 21
194.200502547473
 31
0.0
  0
LINE
  5
380
330
1F
100
AcDbEntity
  8
Sichtbare_Kanten_TC_020513_DIN_
  6
Continuous
 62
     7
100
AcDbLine
 10
79.8945987904782
 20
194.150502547473
 30
0.0
 11
79.8945987904782
 21
194.200502547473
 31
0.0
  0
LINE
  5
381
330
1F
100
AcDbEntity
  8
Sichtbare_Kanten_TC_020513_DIN_
  6
Continuous
 62
     7
100
AcDbLine
 10
83.3945987904782
 20
192.200502547473
 30
0.0
 11
83.3945987904782
 21
193.150502547473
 31
0.0
  0
LINE
  5
382
330
1F
100
AcDbEntity
  8
Sichtbare_Kanten_TC_020513_DIN_
  6
Continuous
 62
     7
100
AcDbLine
 10
79.8945987904782
 20
192.200502547473
 30
0.0
 11
79.8945987904782
 21
193.150502547473
 31
0.0
  0
LINE
  5
383
330
1F
100
AcDbEntity
  8
Sichtbare_Kanten_TC_020513_DIN_
  6
Continuous
 62
     7
100
AcDbLine
 10
78.49459879047822
 20
196.623152278283
 30
0.0
 11
78.49459879047822
 21
195.900502547473
 31
0.0
  0
LINE
  5
384
330
1F
100
AcDbEntity
  8
Sichtbare_Kanten_TC_020513_DIN_
  6
Continuous
 62
     7
100
AcDbLine
 10
84.79459879047823
 20
196.623152278283
 30
0.0
 11
84.79459879047823
 21
195.900502547473
 31
0.0
  0
LINE
  5
385
330
1F
100
AcDbEntity
  8
Sichtbare_Kanten_TC_020513_DIN_
  6
Continuous
 62
     7
100
AcDbLine
 10
79.49459879047822
 20
197.200502547473
 30
0.0
 11
78.49459879047822
 21
196.623152278283
 31
0.0
  0
LINE
  5
386
330
1F
100
AcDbEntity
  8
Sichtbare_Kanten_TC_020513_DIN_
  6
Continuous
 62
     7
100
AcDbLine
 10
83.79459879047823
 20
197.200502547473
 30
0.0
 11
84.79459879047823
 21
196.623152278283
 31
0.0
  0
LINE
  5
387
330
1F
100
AcDbEntity
  8
Sichtbare_Kanten_TC_020513_DIN_
  6
Continuous
 62
     7
100
AcDbLine
 10
76.3945987904782
 20
195.900502547473
 30
0.0
 11
76.1445987904782
 21
195.650502547473
 31
0.0
  0
LINE
  5
388
330
1F
100
AcDbEntity
  8
Sichtbare_Kanten_TC_020513_DIN_
  6
Continuous
 62
     7
100
AcDbLine
 10
86.8945987904782
 20
195.900502547473
 30
0.0
 11
87.1445987904782
 21
195.650502547473
 31
0.0
  0
LINE
  5
389
330
1F
100
AcDbEntity
  8
Sichtbare_Kanten_TC_020513_DIN_
  6
Continuous
 62
     7
100
AcDbLine
 10
76.1445987904782
 20
195.650502547473
 30
0.0
 11
76.1445987904782
 21
194.450502547473
 31
0.0
  0
LINE
  5
38A
330
1F
100
AcDbEntity
  8
Sichtbare_Kanten_TC_020513_DIN_
  6
Continuous
 62
     7
100
AcDbLine
 10
87.1445987904782
 20
195.650502547473
 30
0.0
 11
87.1445987904782
 21
194.450502547473
 31
0.0
  0
LINE
  5
38B
330
1F
100
AcDbEntity
  8
Sichtbare_Kanten_TC_020513_DIN_
  6
Continuous
 62
     7
100
AcDbLine
 10
86.8945987904782
 20
194.200502547473
 30
0.0
 11
87.1445987904782
 21
194.450502547473
 31
0.0
  0
LINE
  5
38C
330
1F
100
AcDbEntity
  8
Sichtbare_Kanten_TC_020513_DIN_
  6
Continuous
 62
     7
100
AcDbLine
 10
76.3945987904782
 20
194.200502547473
 30
0.0
 11
76.1445987904782
 21
194.450502547473
 31
0.0
  0
LINE
  5
38D
330
1F
100
AcDbEntity
  8
Sichtbare_Kanten_TC_020513_DIN_
  6
Continuous
 62
     7
100
AcDbLine
 10
103.3219058496261
 20
194.695867537868
 30
0.0
 11
103.3219058496261
 21
195.91151159641
 31
0.0
  0
LINE
  5
38E
330
1F
100
AcDbEntity
  8
Sichtbare_Kanten_TC_020513_DIN_
  6
Continuous
 62
     7
100
AcDbLine
 10
97.05098537619904
 20
196.150502547468
 30
0.0
 11
87.19529573378901
 21
196.150502547469
 31
0.0
  0
LINE
  5
38F
330
1F
100
AcDbEntity
  8
Sichtbare_Kanten_TC_020513_DIN_
  6
Continuous
 62
     7
100
AcDbLine
 10
90.54722778149551
 20
194.150502547472
 30
0.0
 11
90.54722778149551
 21
193.150502547475
 31
0.0
  0
LINE
  5
390
330
1F
100
AcDbEntity
  8
Sichtbare_Kanten_TC_020513_DIN_
  6
Continuous
 62
     7
100
AcDbLine
 10
88.77946082852912
 20
194.150502547472
 30
0.0
 11
88.77946082852912
 21
193.150502547472
 31
0.0
  0
LINE
  5
391
330
1F
100
AcDbEntity
  8
Sichtbare_Kanten_TC_020513_DIN_
  6
Continuous
 62
     7
100
AcDbLine
 10
97.05098537619904
 20
195.150502547468
 30
0.0
 11
87.19529573378901
 21
195.150502547469
 31
0.0
  0
LINE
  5
392
330
1F
100
AcDbEntity
  8
Sichtbare_Kanten_TC_020513_DIN_
  6
Continuous
 62
     7
100
AcDbLine
 10
79.8945987904782
 20
192.200502547473
 30
0.0
 11
83.3945987904782
 21
192.200502547473
 31
0.0
  0
LINE
  5
393
330
1F
100
AcDbEntity
  8
Sichtbare_Kanten_TC_020513_DIN_
  6
Continuous
 62
     7
100
AcDbLine
 10
79.49459879047822
 20
197.200502547473
 30
0.0
 11
83.79459879047823
 21
197.200502547473
 31
0.0
  0
LINE
  5
394
330
1F
100
AcDbEntity
  8
Sichtbare_Kanten_TC_020513_DIN_
  6
Continuous
 62
     7
100
AcDbLine
 10
84.79459879047823
 20
196.623152278283
 30
0.0
 11
78.49459879047822
 21
196.623152278283
 31
0.0
  0
LINE
  5
395
330
1F
100
AcDbEntity
  8
Sichtbare_Kanten_TC_020513_DIN_
  6
Continuous
 62
     7
100
AcDbLine
 10
76.3945987904782
 20
195.900502547473
 30
0.0
 11
86.8945987904782
 21
195.900502547473
 31
0.0
  0
LINE
  5
396
330
1F
100
AcDbEntity
  8
Sichtbare_Kanten_TC_020513_DIN_
  6
Continuous
 62
     7
100
AcDbLine
 10
87.1445987904782
 20
195.650502547473
 30
0.0
 11
76.1445987904782
 21
195.650502547473
 31
0.0
  0
LINE
  5
397
330
1F
100
AcDbEntity
  8
Sichtbare_Kanten_TC_020513_DIN_
  6
Continuous
 62
     7
100
AcDbLine
 10
76.1445987904782
 20
194.450502547473
 30
0.0
 11
87.1445987904782
 21
194.450502547473
 31
0.0
  0
LINE
  5
398
330
1F
100
AcDbEntity
  8
Sichtbare_Kanten_TC_020513_DIN_
  6
Continuous
 62
     7
100
AcDbLine
 10
86.8945987904782
 20
194.200502547473
 30
0.0
 11
76.3945987904782
 21
194.200502547473
 31
0.0
  0
LINE
  5
399
330
1F
100
AcDbEntity
  8
Sichtbare_Kanten_TC_020513_DIN_
  6
Continuous
 62
     7
100
AcDbLine
 10
103.2584565986781
 20
195.150502547471
 30
0.0
 11
97.05098537619904
 21
195.150502547468
 31
0.0
  0
LINE
  5
39A
330
1F
100
AcDbEntity
  8
Sichtbare_Kanten_TC_020513_DIN_
  6
Continuous
 62
     7
100
AcDbLine
 10
103.2893264934211
 20
196.150502547471
 30
0.0
 11
97.05098537619904
 21
196.150502547468
 31
0.0
  0
LINE
  5
39B
330
1F
100
AcDbEntity
  8
Sichtbare_Kanten_TC_020513_DIN_
  6
Continuous
 62
     7
100
AcDbLine
 10
78.1445987904782
 20
193.150502547473
 30
0.0
 11
81.94964389009499
 21
193.150502547472
 31
0.0
  0
LINE
  5
39C
330
1F
100
AcDbEntity
  8
Sichtbare_Kanten_TC_020513_DIN_
  6
Continuous
 62
     7
100
AcDbLine
 10
86.89672075693312
 20
193.150502547472
 30
0.0
 11
81.94964389009499
 21
193.150502547472
 31
0.0
  0
LINE
  5
39D
330
1F
100
AcDbEntity
  8
Sichtbare_Kanten_TC_020513_DIN_
  6
Continuous
 62
     7
100
AcDbLine
 10
88.08811454283443
 20
193.150502547472
 30
0.0
 11
86.89672075693312
 21
193.150502547472
 31
0.0
  0
LINE
  5
39E
330
1F
100
AcDbEntity
  8
Sichtbare_Kanten_TC_020513_DIN_
  6
Continuous
 62
     7
100
AcDbLine
 10
88.77946082852912
 20
193.150502547472
 30
0.0
 11
88.08811454283443
 21
193.150502547472
 31
0.0
  0
LINE
  5
39F
330
1F
100
AcDbEntity
  8
Sichtbare_Kanten_TC_020513_DIN_
  6
Continuous
 62
     7
100
AcDbLine
 10
90.54722778149551
 20
193.150502547475
 30
0.0
 11
88.77946082852912
 21
193.150502547472
 31
0.0
  0
LINE
  5
3A0
330
1F
100
AcDbEntity
  8
Sichtbare_Kanten_TC_020513_DIN_
  6
Continuous
 62
     7
100
AcDbLine
 10
101.1897313131291
 20
193.150502547471
 30
0.0
 11
90.54722778149551
 21
193.150502547475
 31
0.0
  0
LINE
  5
3A1
330
1F
100
AcDbEntity
  8
Sichtbare_Kanten_TC_020513_DIN_
  6
Continuous
 62
     7
100
AcDbLine
 10
101.1897313131291
 20
193.150502547471
 30
0.0
 11
103.1440824602501
 21
193.150502547473
 31
0.0
  0
LINE
  5
3A2
330
1F
100
AcDbEntity
  8
Sichtbare_Kanten_TC_020513_DIN_
  6
Continuous
 62
     7
100
AcDbLine
 10
91.54529573378903
 20
194.150502547475
 30
0.0
 11
90.54722778149551
 21
194.150502547472
 31
0.0
  0
LINE
  5
3A3
330
1F
100
AcDbEntity
  8
Sichtbare_Kanten_TC_020513_DIN_
  6
Continuous
 62
     7
100
AcDbLine
 10
101.0824261241171
 20
194.150502547472
 30
0.0
 11
96.77734654135793
 21
194.150502547474
 31
0.0
  0
LINE
  5
3A4
330
1F
100
AcDbEntity
  8
Sichtbare_Kanten_TC_020513_DIN_
  6
Continuous
 62
     7
100
AcDbLine
 10
90.54722778149551
 20
194.150502547472
 30
0.0
 11
88.77946082852912
 21
194.150502547472
 31
0.0
  0
LINE
  5
3A5
330
1F
100
AcDbEntity
  8
Sichtbare_Kanten_TC_020513_DIN_
  6
Continuous
 62
     7
100
AcDbLine
 10
88.77946082852912
 20
194.150502547472
 30
0.0
 11
88.08811454283443
 21
194.150502547472
 31
0.0
  0
LINE
  5
3A6
330
1F
100
AcDbEntity
  8
Sichtbare_Kanten_TC_020513_DIN_
  6
Continuous
 62
     7
100
AcDbLine
 10
88.08811454283443
 20
194.150502547472
 30
0.0
 11
86.89672075693312
 21
194.150502547472
 31
0.0
  0
LINE
  5
3A7
330
1F
100
AcDbEntity
  8
Sichtbare_Kanten_TC_020513_DIN_
  6
Continuous
 62
     7
100
AcDbLine
 10
86.89672075693312
 20
194.150502547472
 30
0.0
 11
81.94964389009499
 21
194.150502547472
 31
0.0
  0
LINE
  5
3A8
330
1F
100
AcDbEntity
  8
Sichtbare_Kanten_TC_020513_DIN_
  6
Continuous
 62
     7
100
AcDbLine
 10
78.1445987904782
 20
194.150502547473
 30
0.0
 11
81.94964389009499
 21
194.150502547472
 31
0.0
  0
LINE
  5
3A9
330
1F
100
AcDbEntity
  8
Sichtbare_Kanten_TC_020513_DIN_
  6
Continuous
 62
     7
100
AcDbLine
 10
81.94964389009499
 20
225.150502547472
 30
0.0
 11
78.1445987904782
 21
225.150502547473
 31
0.0
  0
LINE
  5
3AA
330
1F
100
AcDbEntity
  8
Sichtbare_Kanten_TC_020513_DIN_
  6
Continuous
 62
     7
100
AcDbLine
 10
81.94964389009499
 20
225.150502547472
 30
0.0
 11
86.89672075693312
 21
225.150502547472
 31
0.0
  0
LINE
  5
3AB
330
1F
100
AcDbEntity
  8
Sichtbare_Kanten_TC_020513_DIN_
  6
Continuous
 62
     7
100
AcDbLine
 10
86.89672075693312
 20
225.150502547472
 30
0.0
 11
88.08811454283443
 21
225.150502547472
 31
0.0
  0
LINE
  5
3AC
330
1F
100
AcDbEntity
  8
Sichtbare_Kanten_TC_020513_DIN_
  6
Continuous
 62
     7
100
AcDbLine
 10
88.08811454283443
 20
225.150502547472
 30
0.0
 11
88.77946082852912
 21
225.150502547472
 31
0.0
  0
LINE
  5
3AD
330
1F
100
AcDbEntity
  8
Sichtbare_Kanten_TC_020513_DIN_
  6
Continuous
 62
     7
100
AcDbLine
 10
88.77946082852912
 20
225.150502547472
 30
0.0
 11
90.54722778149551
 21
225.150502547475
 31
0.0
  0
LINE
  5
3AE
330
1F
100
AcDbEntity
  8
Sichtbare_Kanten_TC_020513_DIN_
  6
Continuous
 62
     7
100
AcDbLine
 10
96.77734654135793
 20
225.150502547474
 30
0.0
 11
101.0824261241171
 21
225.150502547472
 31
0.0
  0
LINE
  5
3AF
330
1F
100
AcDbEntity
  8
Sichtbare_Kanten_TC_020513_DIN_
  6
Continuous
 62
     7
100
AcDbLine
 10
90.54722778149551
 20
225.150502547475
 30
0.0
 11
91.54529573378909
 21
225.150502547475
 31
0.0
  0
LINE
  5
3B0
330
1F
100
AcDbEntity
  8
Sichtbare_Kanten_TC_020513_DIN_
  6
Continuous
 62
     7
100
AcDbLine
 10
101.1582434217492
 20
224.150502547474
 30
0.0
 11
101.1582434217492
 21
224.350502547474
 31
0.0
  0
LINE
  5
3B1
330
1F
100
AcDbEntity
  8
Sichtbare_Kanten_TC_020513_DIN_
  6
Continuous
 62
     7
100
AcDbLine
 10
101.1582434217492
 20
221.650502547474
 30
0.0
 11
101.1582434217492
 21
223.150502547474
 31
0.0
  0
LINE
  5
3B2
330
1F
100
AcDbEntity
  8
Sichtbare_Kanten_TC_020513_DIN_
  6
Continuous
 62
     7
100
AcDbLine
 10
101.1582434217492
 20
196.150502547474
 30
0.0
 11
101.1582434217492
 21
197.650502547474
 31
0.0
  0
LINE
  5
3B3
330
1F
100
AcDbEntity
  8
Sichtbare_Kanten_TC_020513_DIN_
  6
Continuous
 62
     7
100
AcDbLine
 10
101.1582434217492
 20
194.950502547474
 30
0.0
 11
101.1582434217492
 21
195.150502547474
 31
0.0
  0
LINE
  5
3B4
330
1F
100
AcDbEntity
  8
Sichtbare_Kanten_TC_020513_DIN_
  6
Continuous
 62
     7
100
AcDbLine
 10
104.9489896174891
 20
197.650502547473
 30
0.0
 11
104.9489896174891
 21
195.087487704335
 31
0.0
  0
LINE
  5
3B5
330
1F
100
AcDbEntity
  8
Sichtbare_Kanten_TC_020513_DIN_
  6
Continuous
 62
     7
100
AcDbLine
 10
104.9489896174891
 20
224.213517390611
 30
0.0
 11
104.9489896174891
 21
221.650502547473
 31
0.0
  0
LINE
  5
3B6
330
1F
100
AcDbEntity
  8
Sichtbare_Kanten_TC_020513_DIN_
  6
Continuous
 62
     7
100
AcDbLine
 10
103.1440824602501
 20
193.150502547473
 30
0.0
 11
103.2610081515361
 21
193.150502547473
 31
0.0
  0
LINE
  5
3B7
330
1F
100
AcDbEntity
  8
Sichtbare_Kanten_TC_020513_DIN_
  6
Continuous
 62
     7
100
AcDbLine
 10
104.1045796503111
 20
197.650502547473
 30
0.0
 11
104.1045796503111
 21
194.950502547473
 31
0.0
  0
LINE
  5
3B8
330
1F
100
AcDbEntity
  8
Sichtbare_Kanten_TC_020513_DIN_
  6
Continuous
 62
     7
100
AcDbLine
 10
104.1045796503111
 20
224.350502547473
 30
0.0
 11
104.1045796503111
 21
221.650502547473
 31
0.0
  0
LINE
  5
3B9
330
1F
100
AcDbEntity
  8
Sichtbare_Kanten_TC_020513_DIN_
  6
Continuous
 62
     7
100
AcDbLine
 10
103.2610081515361
 20
226.150502547473
 30
0.0
 11
103.1440824602501
 21
226.150502547473
 31
0.0
  0
LINE
  5
3BA
330
1F
100
AcDbEntity
  8
Sichtbare_Kanten_TC_020513_DIN_
  6
Continuous
 62
     7
100
AcDbLine
 10
103.3137909130921
 20
194.150502547473
 30
0.0
 11
103.4290516765681
 21
194.150502547473
 31
0.0
  0
LINE
  5
3BB
330
1F
100
AcDbEntity
  8
Sichtbare_Kanten_TC_020513_DIN_
  6
Continuous
 62
     7
100
AcDbLine
 10
103.3137909130921
 20
225.150502547473
 30
0.0
 11
103.4290516765681
 21
225.150502547473
 31
0.0
  0
LINE
  5
3BC
330
1F
100
AcDbEntity
  8
Sichtbare_Kanten_TC_020513_DIN_
  6
Continuous
 62
     7
100
AcDbLine
 10
87.5452957337215
 20
113.813315777732
 30
0.0
 11
87.5452957337215
 21
105.892378066361
 31
0.0
  0
LINE
  5
3BD
330
1F
100
AcDbEntity
  8
Sichtbare_Kanten_TC_020513_DIN_
  6
Continuous
 62
     7
100
AcDbLine
 10
87.5452957337215
 20
125.892378066361
 30
0.0
 11
87.5452957337215
 21
117.971440354991
 31
0.0
  0
LINE
  5
3BE
330
1F
100
AcDbEntity
  8
Sichtbare_Kanten_TC_020513_DIN_
  6
Continuous
 62
     7
100
AcDbLine
 10
94.5452957337215
 20
114.160327258793
 30
0.0
 11
96.2773465412904
 21
115.160327258792
 31
0.0
  0
LINE
  5
3BF
330
1F
100
AcDbEntity
  8
Sichtbare_Kanten_TC_020513_DIN_
  6
Continuous
 62
     7
100
AcDbLine
 10
87.5452957337215
 20
125.892378066361
 30
0.0
 11
87.5452957337215
 21
126.293540165156
 31
0.0
  0
LINE
  5
3C0
330
1F
100
AcDbEntity
  8
Sichtbare_Kanten_TC_020513_DIN_
  6
Continuous
 62
     7
100
AcDbLine
 10
87.5452957337215
 20
103.892378066361
 30
0.0
 11
87.5452957337215
 21
105.892378066361
 31
0.0
  0
LINE
  5
3C1
330
1F
100
AcDbEntity
  8
Sichtbare_Kanten_TC_020513_DIN_
  6
Continuous
 62
     7
100
AcDbLine
 10
99.91134887507644
 20
127.892378066361
 30
0.0
 11
89.67769221288893
 21
127.892378066361
 31
0.0
  0
LINE
  5
3C2
330
1F
100
AcDbEntity
  8
Sichtbare_Kanten_TC_020513_DIN_
  6
Continuous
 62
     7
100
AcDbLine
 10
133.8319974189395
 20
127.892378066361
 30
0.0
 11
103.3164389800681
 21
127.892378066361
 31
0.0
  0
LINE
  5
3C3
330
1F
100
AcDbEntity
  8
Sichtbare_Kanten_TC_020513_DIN_
  6
Continuous
 62
     7
100
AcDbLine
 10
87.5452957337215
 20
103.892378066361
 30
0.0
 11
133.8319974189395
 21
103.892378066361
 31
0.0
  0
LINE
  5
3C4
330
1F
100
AcDbEntity
  8
Sichtbare_Kanten_TC_020513_DIN_
  6
Continuous
 62
     7
100
AcDbLine
 10
144.5452957336535
 20
127.392378066361
 30
0.0
 11
143.2452957337255
 21
127.892378066334
 31
0.0
  0
LINE
  5
3C5
330
1F
100
AcDbEntity
  8
Sichtbare_Kanten_TC_020513_DIN_
  6
Continuous
 62
     7
100
AcDbLine
 10
144.5452957336535
 20
104.392378066361
 30
0.0
 11
143.2452957337255
 21
103.892378066389
 31
0.0
  0
LINE
  5
3C6
330
1F
100
AcDbEntity
  8
Sichtbare_Kanten_TC_020513_DIN_
  6
Continuous
 62
     7
100
AcDbLine
 10
144.5452957336535
 20
104.392378066361
 30
0.0
 11
144.5452957336535
 21
127.392378066361
 31
0.0
  0
LINE
  5
3C7
330
1F
100
AcDbEntity
  8
Sichtbare_Kanten_TC_020513_DIN_
  6
Continuous
 62
     7
100
AcDbLine
 10
133.8319959823725
 20
127.892378543199
 30
0.0
 11
143.2452955429196
 21
127.892378543199
 31
0.0
  0
LINE
  5
3C8
330
1F
100
AcDbEntity
  8
Sichtbare_Kanten_TC_020513_DIN_
  6
Continuous
 62
     7
100
AcDbLine
 10
143.2452955429196
 20
103.892377589524
 30
0.0
 11
133.8319959823725
 21
103.892377589524
 31
0.0
  0
LINE
  5
3C9
330
1F
100
AcDbEntity
  8
Sichtbare_Kanten_TC_020513_DIN_
  6
Continuous
 62
     7
100
AcDbLine
 10
96.11725996364385
 20
117.377302306853
 30
0.0
 11
94.08881572843683
 21
117.920822301568
 31
0.0
  0
LINE
  5
3CA
330
1F
100
AcDbEntity
  8
Sichtbare_Kanten_TC_020513_DIN_
  6
Continuous
 62
     7
100
AcDbLine
 10
94.7774699677123
 20
114.191864421286
 30
0.0
 11
95.4736752758489
 21
114.69632743735
 31
0.0
  0
LINE
  5
3CB
330
1F
100
AcDbEntity
  8
Sichtbare_Kanten_TC_020513_DIN_
  6
Continuous
 62
     7
100
AcDbLine
 10
106.6276266829041
 20
139.730351929511
 30
0.0
 11
103.0312235555571
 21
134.108709877808
 31
0.0
  0
LINE
  5
3CC
330
1F
100
AcDbEntity
  8
Sichtbare_Kanten_TC_020513_DIN_
  6
Continuous
 62
     7
100
AcDbLine
 10
102.4401608087671
 20
135.040435139057
 30
0.0
 11
105.7852567981651
 21
140.269251713595
 31
0.0
  0
LINE
  5
3CD
330
1F
100
AcDbEntity
  8
Sichtbare_Kanten_TC_020513_DIN_
  6
Continuous
 62
     7
100
AcDbLine
 10
102.3445826507451
 20
133.035401561629
 30
0.0
 11
103.0312235555571
 21
134.108709877808
 31
0.0
  0
LINE
  5
3CE
330
1F
100
AcDbEntity
  8
Sichtbare_Kanten_TC_020513_DIN_
  6
Continuous
 62
     7
100
AcDbLine
 10
107.2926091861191
 20
140.769805369893
 30
0.0
 11
106.4502393013801
 21
141.308705153976
 31
0.0
  0
LINE
  5
3CF
330
1F
100
AcDbEntity
  8
Sichtbare_Kanten_TC_020513_DIN_
  6
Continuous
 62
     7
100
AcDbLine
 10
107.2926091861191
 20
140.769805369893
 30
0.0
 11
106.6276266829041
 21
139.730351929511
 31
0.0
  0
LINE
  5
3D0
330
1F
100
AcDbEntity
  8
Sichtbare_Kanten_TC_020513_DIN_
  6
Continuous
 62
     7
100
AcDbLine
 10
105.7852567981651
 20
140.269251713595
 30
0.0
 11
106.4502393013801
 21
141.308705153976
 31
0.0
  0
LINE
  5
3D1
330
1F
100
AcDbEntity
  8
Sichtbare_Kanten_TC_020513_DIN_
  6
Continuous
 62
     7
100
AcDbLine
 10
102.4401608087671
 20
135.040435139057
 30
0.0
 11
101.7535199039541
 21
133.967126822878
 31
0.0
  0
LINE
  5
3D2
330
1F
100
AcDbEntity
  8
Sichtbare_Kanten_TC_020513_DIN_
  6
Continuous
 62
     7
100
AcDbLine
 10
84.40930937608073
 20
131.39451075131
 30
0.0
 11
87.71880065668171
 21
129.851269622569
 31
0.0
  0
LINE
  5
3D3
330
1F
100
AcDbEntity
  8
Sichtbare_Kanten_TC_020513_DIN_
  6
Continuous
 62
     7
100
AcDbLine
 10
87.71880065668171
 20
129.851269622569
 30
0.0
 11
90.54722778142792
 21
127.022842497822
 31
0.0
  0
LINE
  5
3D4
330
1F
100
AcDbEntity
  8
Sichtbare_Kanten_TC_020513_DIN_
  6
Continuous
 62
     7
100
AcDbLine
 10
90.54722778142792
 20
127.022842497822
 30
0.0
 11
88.77946082846154
 21
125.255075544856
 31
0.0
  0
LINE
  5
3D5
330
1F
100
AcDbEntity
  8
Sichtbare_Kanten_TC_020513_DIN_
  6
Continuous
 62
     7
100
AcDbLine
 10
88.77946082846154
 20
125.255075544856
 30
0.0
 11
88.0881145427669
 21
125.946421830551
 31
0.0
  0
LINE
  5
3D6
330
1F
100
AcDbEntity
  8
Sichtbare_Kanten_TC_020513_DIN_
  6
Continuous
 62
     7
100
AcDbLine
 10
86.89672075686565
 20
126.380053705908
 30
0.0
 11
81.94964389002752
 21
125.947240562469
 31
0.0
  0
LINE
  5
3D7
330
1F
100
AcDbEntity
  8
Sichtbare_Kanten_TC_020513_DIN_
  6
Continuous
 62
     7
100
AcDbLine
 10
99.44016776164699
 20
131.946677929163
 30
0.0
 11
100.3147713199161
 21
132.501530375792
 31
0.0
  0
LINE
  5
3D8
330
1F
100
AcDbEntity
  8
Sichtbare_Kanten_TC_020513_DIN_
  6
Continuous
 62
     7
100
AcDbLine
 10
103.2610081514681
 20
127.857212498401
 30
0.0
 11
102.3865039902091
 21
127.302423109683
 31
0.0
  0
LINE
  5
3D9
330
1F
100
AcDbEntity
  8
Sichtbare_Kanten_TC_020513_DIN_
  6
Continuous
 62
     7
100
AcDbLine
 10
101.1582434216811
 20
133.036632885841
 30
0.0
 11
101.7535199039541
 21
133.967126822878
 31
0.0
  0
LINE
  5
3DA
330
1F
100
AcDbEntity
  8
Sichtbare_Kanten_TC_020513_DIN_
  6
Continuous
 62
     7
100
AcDbLine
 10
102.3445826507451
 20
133.035401561629
 30
0.0
 11
101.7535199039541
 21
133.967126822878
 31
0.0
  0
LINE
  5
3DB
330
1F
100
AcDbEntity
  8
Sichtbare_Kanten_TC_020513_DIN_
  6
Continuous
 62
     7
100
AcDbLine
 10
102.3445826507451
 20
133.035401561629
 30
0.0
 11
102.3439303324151
 21
133.034381903925
 31
0.0
  0
LINE
  5
3DC
330
1F
100
AcDbEntity
  8
Sichtbare_Kanten_TC_020513_DIN_
  6
Continuous
 62
     7
100
AcDbLine
 10
104.9489901249721
 20
128.928076003373
 30
0.0
 11
102.3439297859981
 21
133.034381841004
 31
0.0
  0
LINE
  5
3DD
330
1F
100
AcDbEntity
  8
Sichtbare_Kanten_TC_020513_DIN_
  6
Continuous
 62
     7
100
AcDbLine
 10
104.9489896174212
 20
128.928075562464
 30
0.0
 11
103.2610081514681
 21
127.857212498401
 31
0.0
  0
LINE
  5
3DE
330
1F
100
AcDbEntity
  8
Sichtbare_Kanten_TC_020513_DIN_
  6
Continuous
 62
     7
100
AcDbLine
 10
100.3147713199161
 20
132.501530375792
 30
0.0
 11
101.1582434216811
 21
133.036632885841
 31
0.0
  0
ARC
  5
3DF
330
1F
100
AcDbEntity
  8
Stich_1-Linien_TC_020513_DIN_
  6
DASHED
 62
     2
100
AcDbCircle
 10
93.5452957337215
 20
115.892378066361
 30
0.0
 40
28.50486363954568
100
AcDbArc
 50
55.97538610367303
 51
90.0
  0
ARC
  5
3E0
330
1F
100
AcDbEntity
  8
Stich_1-Linien_TC_020513_DIN_
  6
DASHED
 62
     2
100
AcDbCircle
 10
93.5452957337215
 20
115.892378066361
 30
0.0
 40
28.5048636395457
100
AcDbArc
 50
90.0
 51
134.5582997030903
  0
ARC
  5
3E1
330
1F
100
AcDbEntity
  8
Sichtbare_Kanten_TC_020513_DIN_
  6
Continuous
 62
     7
100
AcDbCircle
 10
129.1698150979635
 20
208.650502547465
 30
0.0
 40
0.2499999999990052
100
AcDbArc
 50
270.0
 51
90.0
  0
ARC
  5
3E2
330
1F
100
AcDbEntity
  8
Sichtbare_Kanten_TC_020513_DIN_
  6
Continuous
 62
     7
100
AcDbCircle
 10
125.7380840617865
 20
208.650502547465
 30
0.0
 40
0.2500000000004345
100
AcDbArc
 50
125.9095761768051
 51
270.0
  0
ARC
  5
3E3
330
1F
100
AcDbEntity
  8
Sichtbare_Kanten_TC_020513_DIN_
  6
Continuous
 62
     7
100
AcDbCircle
 10
125.7380840617865
 20
210.650502547465
 30
0.0
 40
0.25
100
AcDbArc
 50
90.0
 51
234.090423823065
  0
ARC
  5
3E4
330
1F
100
AcDbEntity
  8
Sichtbare_Kanten_TC_020513_DIN_
  6
Continuous
 62
     7
100
AcDbCircle
 10
130.3525074056556
 20
210.650502547465
 30
0.0
 40
0.25
100
AcDbArc
 50
270.0
 51
90.0
  0
ARC
  5
3E5
330
1F
100
AcDbEntity
  8
Sichtbare_Kanten_TC_020513_DIN_
  6
Continuous
 62
     7
100
AcDbCircle
 10
126.3438532925565
 20
207.600502547466
 30
0.0
 40
0.25
100
AcDbArc
 50
90.0
 51
270.0
  0
ARC
  5
3E6
330
1F
100
AcDbEntity
  8
Sichtbare_Kanten_TC_020513_DIN_
  6
Continuous
 62
     7
100
AcDbCircle
 10
130.9294304825785
 20
209.650502547465
 30
0.0
 40
0.2500000000005432
100
AcDbArc
 50
330.0183606313228
 51
150.018360631017
  0
ARC
  5
3E7
330
1F
100
AcDbEntity
  8
Sichtbare_Kanten_TC_020513_DIN_
  6
Continuous
 62
     7
100
AcDbCircle
 10
129.7467381748865
 20
207.600502547466
 30
0.0
 40
0.25
100
AcDbArc
 50
270.0
 51
330.0183606310267
  0
ARC
  5
3E8
330
1F
100
AcDbEntity
  8
Sichtbare_Kanten_TC_020513_DIN_
  6
Continuous
 62
     7
100
AcDbCircle
 10
129.1698150979635
 20
206.600502547466
 30
0.0
 40
0.25
100
AcDbArc
 50
270.0
 51
90.0
  0
ARC
  5
3E9
330
1F
100
AcDbEntity
  8
Sichtbare_Kanten_TC_020513_DIN_
  6
Continuous
 62
     7
100
AcDbCircle
 10
126.9207763694795
 20
206.600502547466
 30
0.0
 40
0.25
100
AcDbArc
 50
90.0
 51
270.0
  0
ARC
  5
3EA
330
1F
100
AcDbEntity
  8
Sichtbare_Kanten_TC_020513_DIN_
  6
Continuous
 62
     7
100
AcDbCircle
 10
126.3150071387105
 20
211.650502547465
 30
0.0
 40
0.2500000000001645
100
AcDbArc
 50
150.018360631017
 51
270.0
  0
ARC
  5
3EB
330
1F
100
AcDbEntity
  8
Sichtbare_Kanten_TC_020513_DIN_
  6
Continuous
 62
     7
100
AcDbCircle
 10
126.8919302156335
 20
212.650502547465
 30
0.0
 40
0.2499999999996816
100
AcDbArc
 50
330.0183606312089
 51
150.0183606310154
  0
ARC
  5
3EC
330
1F
100
AcDbEntity
  8
Sichtbare_Kanten_TC_020513_DIN_
  6
Continuous
 62
     7
100
AcDbCircle
 10
128.0452957337215
 20
212.650502547465
 30
0.0
 40
0.25
100
AcDbArc
 50
0.0
 51
180.0
  0
ARC
  5
3ED
330
1F
100
AcDbEntity
  8
Sichtbare_Kanten_TC_020513_DIN_
  6
Continuous
 62
     7
100
AcDbCircle
 10
129.1986612518095
 20
212.650502547465
 30
0.0
 40
0.2500000000001645
100
AcDbArc
 50
29.98163936898301
 51
209.9816393687911
  0
ARC
  5
3EE
330
1F
100
AcDbEntity
  8
Sichtbare_Kanten_TC_020513_DIN_
  6
Continuous
 62
     7
100
AcDbCircle
 10
129.7755843287325
 20
211.650502547465
 30
0.0
 40
0.25
100
AcDbArc
 50
270.0
 51
29.98163936898301
  0
ARC
  5
3EF
330
1F
100
AcDbEntity
  8
Sichtbare_Kanten_TC_020513_DIN_
  6
Continuous
 62
     7
100
AcDbCircle
 10
93.5452957337215
 20
115.892378066361
 30
0.0
 40
2.000000000000016
100
AcDbArc
 50
29.99999999999973
 51
300.0000000000125
  0
ARC
  5
3F0
330
1F
100
AcDbEntity
  8
Sichtbare_Kanten_TC_020513_DIN_
  6
Continuous
 62
     7
100
AcDbCircle
 10
93.5452957337215
 20
115.892378066361
 30
0.0
 40
3.000000000000092
100
AcDbArc
 50
17.7472242996381
 51
29.40424785718974
  0
ARC
  5
3F1
330
1F
100
AcDbEntity
  8
Sichtbare_Kanten_TC_020513_DIN_
  6
Continuous
 62
     7
100
AcDbCircle
 10
95.7773465412904
 20
116.026352662577
 30
0.0
 40
1.000000000000488
100
AcDbArc
 50
299.9999999999838
 51
120.0000000000124
  0
ARC
  5
3F2
330
1F
100
AcDbEntity
  8
Sichtbare_Kanten_TC_020513_DIN_
  6
Continuous
 62
     7
100
AcDbCircle
 10
81.64459879041073
 20
129.43392200579
 30
0.0
 40
5.250000000000275
100
AcDbArc
 50
78.84017643044452
 51
323.1896851042204
  0
ARC
  5
3F3
330
1F
100
AcDbEntity
  8
Sichtbare_Kanten_TC_020513_DIN_
  6
Continuous
 62
     7
100
AcDbCircle
 10
81.64459879041073
 20
129.43392200579
 30
0.0
 40
5.249999999999844
100
AcDbArc
 50
9.12582678140476
 51
50.06532601424448
  0
ARC
  5
3F4
330
1F
100
AcDbEntity
  8
Sichtbare_Kanten_TC_020513_DIN_
  6
Continuous
 62
     7
100
AcDbCircle
 10
81.64459879041073
 20
129.43392200579
 30
0.0
 40
5.499999999999813
100
AcDbArc
 50
75.70408120734231
 51
325.4788036413557
  0
ARC
  5
3F5
330
1F
100
AcDbEntity
  8
Sichtbare_Kanten_TC_020513_DIN_
  6
Continuous
 62
     7
100
AcDbCircle
 10
81.64459879041073
 20
129.43392200579
 30
0.0
 40
5.499999999999919
100
AcDbArc
 50
7.37861634518203
 51
48.59091241294059
  0
ARC
  5
3F6
330
1F
100
AcDbEntity
  8
Sichtbare_Kanten_TC_020513_DIN_
  6
Continuous
 62
     7
100
AcDbCircle
 10
93.5452957337215
 20
115.892378066361
 30
0.0
 40
6.35000000000007
100
AcDbArc
 50
27.51944670605623
 51
303.509628350331
  0
ARC
  5
3F7
330
1F
100
AcDbEntity
  8
Sichtbare_Kanten_TC_020513_DIN_
  6
Continuous
 62
     7
100
AcDbCircle
 10
99.79842961323072
 20
119.910874885439
 30
0.0
 40
1.250000000000548
100
AcDbArc
 50
240.1792313850032
 51
347.3050304565759
  0
ARC
  5
3F8
330
1F
100
AcDbEntity
  8
Sichtbare_Kanten_TC_020513_DIN_
  6
Continuous
 62
     7
100
AcDbCircle
 10
89.32190584955833
 20
122.270894969713
 30
0.0
 40
11.98905233104759
100
AcDbArc
 50
347.305030456583
 51
350.9127905972621
  0
ARC
  5
3F9
330
1F
100
AcDbEntity
  8
Sichtbare_Kanten_TC_020513_DIN_
  6
Continuous
 62
     7
100
AcDbCircle
 10
93.5452957337215
 20
115.892378066361
 30
0.0
 40
2.099999999999957
100
AcDbArc
 50
74.99999999999879
 51
305.9266901237557
  0
ARC
  5
3FA
330
1F
100
AcDbEntity
  8
Sichtbare_Kanten_TC_020513_DIN_
  6
Continuous
 62
     7
100
AcDbCircle
 10
95.832559014031
 20
116.314783897935
 30
0.0
 40
1.09999999999966
100
AcDbArc
 50
321.87119826226
 51
74.99999999999686
  0
ARC
  5
3FB
330
1F
100
AcDbEntity
  8
Sichtbare_Kanten_TC_020513_DIN_
  6
Continuous
 62
     7
100
AcDbCircle
 10
89.32190584955833
 20
122.270894969713
 30
0.0
 40
14.00000000000002
100
AcDbArc
 50
303.5096283503318
 51
354.543036859302
  0
ARC
  5
3FC
330
1F
100
AcDbEntity
  8
Sichtbare_Kanten_TC_020513_DIN_
  6
Continuous
 62
     7
100
AcDbCircle
 10
89.32190584955833
 20
122.270894969713
 30
0.0
 40
14.00000000000027
100
AcDbArc
 50
9.14173898815221
 51
21.06303740044365
  0
ARC
  5
3FD
330
1F
100
AcDbEntity
  8
Sichtbare_Kanten_TC_020513_DIN_
  6
Continuous
 62
     7
100
AcDbCircle
 10
89.32190584955833
 20
122.270894969713
 30
0.0
 40
11.98905233104775
100
AcDbArc
 50
8.15476162096
 51
114.1160705756011
  0
ARC
  5
3FE
330
1F
100
AcDbEntity
  8
Sichtbare_Kanten_TC_020513_DIN_
  6
Continuous
 62
     7
100
AcDbCircle
 10
84.83192763782142
 20
132.300818538347
 30
0.0
 40
0.9999999999999755
100
AcDbArc
 50
114.1160705756073
 51
245.0000000000082
  0
ARC
  5
3FF
330
1F
100
AcDbEntity
  8
Sichtbare_Kanten_TC_020513_DIN_
  6
Continuous
 62
     7
100
AcDbCircle
 10
87.02745437098713
 20
124.885761658771
 30
0.0
 40
1.500000000000093
100
AcDbArc
 50
45.00000000000615
 51
95.00000000000188
  0
ARC
  5
400
330
1F
100
AcDbEntity
  8
Sichtbare_Kanten_TC_020513_DIN_
  6
Continuous
 62
     7
100
AcDbCircle
 10
81.64459879041073
 20
129.43392200579
 30
0.0
 40
3.499999999999908
100
AcDbArc
 50
136.9847456064199
 51
274.9999999999999
  0
ARC
  5
401
330
1F
100
AcDbEntity
  8
Sichtbare_Kanten_TC_020513_DIN_
  6
Continuous
 62
     7
100
AcDbCircle
 10
89.32190584955833
 20
122.270894969713
 30
0.0
 40
14.00000000000025
100
AcDbArc
 50
43.71941510458114
 51
136.9847456064164
  0
CIRCLE
  5
402
330
1F
100
AcDbEntity
  8
Sichtbare_Kanten_TC_020513_DIN_
  6
Continuous
 62
     7
100
AcDbCircle
 10
81.64459879041073
 20
129.43392200579
 30
0.0
 40
1.75
  0
SPLINE
  5
403
330
1F
100
AcDbEntity
  8
Sichtbare_Kanten_TC_020513_DIN_
  6
Continuous
 62
     7
100
AcDbSpline
210
0.0
220
0.0
230
1.0
 70
     8
 71
     3
 72
    21
 73
    17
 74
    15
 42
0.000000001
 43
0.0000000001
 44
0.00000001
 40
0.0
 40
0.0
 40
0.0
 40
0.0
 40
0.2965696978343219
 40
0.5931523996383763
 40
0.745714607016563
 40
0.8982846753336418
 40
1.055076413015215
 40
1.211874679626148
 40
1.373342292636138
 40
1.534817073859177
 40
1.700831244102341
 40
1.866849984818728
 40
2.036761375343654
 40
2.206677423357116
 40
2.522036295721314
 40
2.837311498926716
 40
2.837311498926716
 40
2.837311498926716
 40
2.837311498926716
 10
103.2610081515361
 20
193.150502547473
 30
0.0
 10
103.3600303309007
 20
193.1564753721103
 30
0.0
 10
103.5580790300243
 20
193.168421297424
 30
0.0
 10
103.7965326262547
 20
193.2479407594762
 30
0.0
 10
103.9767523589349
 20
193.3361279881434
 30
0.0
 10
104.1079550083
 20
193.4172639761389
 30
0.0
 10
104.2320727889691
 20
193.5110966099612
 30
0.0
 10
104.3493268392918
 20
193.6178432242132
 30
0.0
 10
104.4577153102823
 20
193.7357007041142
 30
0.0
 10
104.5574564336321
 20
193.8648444303772
 30
0.0
 10
104.6468994359743
 20
194.0031356426798
 30
0.0
 10
104.7261210803784
 20
194.1506963625625
 30
0.0
 10
104.7940127133052
 20
194.3052645049324
 30
0.0
 10
104.8657578152177
 20
194.511633811591
 30
0.0
 10
104.92850656191
 20
194.7723977993273
 30
0.0
 10
104.9421625411051
 20
194.9824670258301
 30
0.0
 10
104.9489896174891
 20
195.087487704335
 30
0.0
 11
103.2610081515361
 21
193.150502547473
 31
0.0
 11
103.5559799865243
 21
193.1812467210871
 31
0.0
 11
103.8386185876676
 21
193.2711173059002
 31
0.0
 11
103.9755695928445
 21
193.338345645652
 31
0.0
 11
104.1054181189071
 21
193.4184517399032
 31
0.0
 11
104.2305474663167
 21
193.5129308153795
 31
0.0
 11
104.3465606805798
 21
193.6184136612342
 31
0.0
 11
104.4559421423011
 21
193.7371886001045
 31
0.0
 11
104.5547192779737
 21
193.8649273280988
 31
0.0
 11
104.6449554669917
 21
194.0042762968266
 31
0.0
 11
104.7235691174405
 21
194.1505025474722
 31
0.0
 11
104.791912818293
 21
194.3060628872421
 31
0.0
 11
104.8479797820498
 21
194.4664622608209
 31
0.0
 11
104.9195671562007
 21
194.7735884017995
 31
0.0
 11
104.9489896174891
 21
195.087487704335
 31
0.0
  0
SPLINE
  5
404
330
1F
100
AcDbEntity
  8
Sichtbare_Kanten_TC_020513_DIN_
  6
Continuous
 62
     7
100
AcDbSpline
210
0.0
220
0.0
230
1.0
 70
     8
 71
     3
 72
    21
 73
    17
 74
    15
 42
0.000000001
 43
0.0000000001
 44
0.00000001
 40
0.0
 40
0.0
 40
0.0
 40
0.0
 40
0.3461709406922641
 40
0.6923357425861396
 40
0.8616145253100429
 40
1.03089195110017
 40
1.196124704416256
 40
1.361351676832664
 40
1.521975373357214
 40
1.682592167536961
 40
1.83857725278476
 40
1.99455454623106
 40
2.146451513795203
 40
2.298344620227267
 40
2.567949564252705
 40
2.837390847768723
 40
2.837390847768723
 40
2.837390847768723
 40
2.837390847768723
 10
104.9489896174891
 20
224.213517390611
 30
0.0
 10
104.9410612479448
 20
224.3288340862528
 30
0.0
 10
104.9252046348434
 20
224.5594654311103
 30
0.0
 10
104.8517348153968
 20
224.8389672599636
 30
0.0
 10
104.7707909620864
 20
225.0524561373666
 30
0.0
 10
104.6988265731103
 20
225.204418652804
 30
0.0
 10
104.6157090734327
 20
225.3489741705796
 30
0.0
 10
104.5226301239635
 20
225.4838680435891
 30
0.0
 10
104.4194888993505
 20
225.6092439996082
 30
0.0
 10
104.3080067231327
 20
225.723013727091
 30
0.0
 10
104.1879562279746
 20
225.8253407827375
 30
0.0
 10
104.0613785403642
 20
225.9145120684232
 30
0.0
 10
103.9280759756204
 20
225.9907039707304
 30
0.0
 10
103.7534405503215
 20
226.068629638384
 30
0.0
 10
103.5308759699049
 20
226.1357025130295
 30
0.0
 10
103.3509458818534
 20
226.1455702060086
 30
0.0
 10
103.2610081515361
 20
226.150502547473
 30
0.0
 11
104.9489896174891
 21
224.213517390611
 31
0.0
 11
104.9144096091675
 21
224.557956852137
 31
0.0
 11
104.8289928636013
 21
224.8934178034944
 31
0.0
 11
104.7687059705756
 21
225.0515974383973
 31
0.0
 11
104.6962378013491
 21
225.2045785203917
 31
0.0
 11
104.6137901057536
 21
225.347771538368
 31
0.0
 11
104.519874012449
 21
225.48371167224
 31
0.0
 11
104.417753959496
 21
225.6076933920761
 31
0.0
 11
104.3052602213816
 21
225.7223359394688
 31
0.0
 11
104.1864843030099
 21
225.8234478985653
 31
0.0
 11
104.0589173595892
 21
225.9132008444681
 31
0.0
 11
103.9269637924773
 21
225.9884400975155
 31
0.0
 11
103.7883304302716
 21
226.0505070536812
 31
0.0
 11
103.5292490156864
 21
226.1250969197544
 31
0.0
 11
103.2610081515361
 21
226.150502547473
 31
0.0
  0
SPLINE
  5
405
330
1F
100
AcDbEntity
  8
Sichtbare_Kanten_TC_020513_DIN_
  6
Continuous
 62
     7
100
AcDbSpline
210
0.0
220
0.0
230
1.0
 70
     8
 71
     3
 72
    21
 73
    17
 74
    15
 42
0.000000001
 43
0.0000000001
 44
0.00000001
 40
0.0
 40
0.0
 40
0.0
 40
0.0
 40
0.1186278769787392
 40
0.2372609557379093
 40
0.2982858392703323
 40
0.3593138644031165
 40
0.4220305520340801
 40
0.4847498659307797
 40
0.5493369436081442
 40
0.6139268203644018
 40
0.6803323419405333
 40
0.746739991478312
 40
0.8147051648633898
 40
0.8826709470552486
 40
1.021369601221745
 40
1.16007035265332
 40
1.16007035265332
 40
1.16007035265332
 40
1.16007035265332
 10
103.4290516765681
 20
194.150502547473
 30
0.0
 10
103.4686605475062
 20
194.1528916774704
 30
0.0
 10
103.54788002469
 20
194.1576700563285
 30
0.0
 10
103.6432614636872
 20
194.1894778346121
 30
0.0
 10
103.7153493534015
 20
194.2247527308494
 30
0.0
 10
103.7678304110949
 20
194.2572071224895
 30
0.0
 10
103.8174775319079
 20
194.2947401640433
 30
0.0
 10
103.8643791565152
 20
194.3374388201944
 30
0.0
 10
103.9077345144777
 20
194.384581851676
 30
0.0
 10
103.9476309303124
 20
194.4362392662735
 30
0.0
 10
103.9834083131073
 20
194.4915557422365
 30
0.0
 10
104.0150967931533
 20
194.5505799435192
 30
0.0
 10
104.0422539199084
 20
194.6124086045704
 30
0.0
 10
104.072322708535
 20
194.6989047766958
 30
0.0
 10
104.0987339383767
 20
194.8116872808277
 30
0.0
 10
104.1026310747294
 20
194.9042305583428
 30
0.0
 10
104.1045796503111
 20
194.950502547473
 30
0.0
 11
103.4290516765681
 21
194.150502547473
 31
0.0
 11
103.5470404105376
 21
194.1628002169037
 31
0.0
 11
103.660095850968
 21
194.1987484508441
 31
0.0
 11
103.7148762530124
 21
194.2256397897639
 31
0.0
 11
103.7668156634394
 21
194.2576822244452
 31
0.0
 11
103.8168674024468
 21
194.2954738431106
 31
0.0
 11
103.8632726880867
 21
194.3376669929778
 31
0.0
 11
103.9070252725536
 21
194.3851770134194
 31
0.0
 11
103.946536127025
 21
194.4362724597236
 31
0.0
 11
103.9826306034493
 21
194.492011872485
 31
0.0
 11
104.0140760627958
 21
194.5505025474728
 31
0.0
 11
104.0414135399389
 21
194.6127273591291
 31
0.0
 11
104.063840328628
 21
194.6768864328123
 31
0.0
 11
104.0944047226923
 21
194.812175510691
 31
0.0
 11
104.1045796503111
 21
194.950502547473
 31
0.0
  0
SPLINE
  5
406
330
1F
100
AcDbEntity
  8
Sichtbare_Kanten_TC_020513_DIN_
  6
Continuous
 62
     7
100
AcDbSpline
210
0.0
220
0.0
230
1.0
 70
     8
 71
     3
 72
    21
 73
    17
 74
    15
 42
0.000000001
 43
0.0000000001
 44
0.00000001
 40
0.0
 40
0.0
 40
0.0
 40
0.0
 40
0.1186278769787109
 40
0.2372609557378946
 40
0.29828583927033
 40
0.3593138644030845
 40
0.4220305520340707
 40
0.4847498659307876
 40
0.5493369436081311
 40
0.6139268203644025
 40
0.6803323419404939
 40
0.7467399914782908
 40
0.8147051648633858
 40
0.8826709470553754
 40
1.021369601222354
 40
1.160070352653388
 40
1.160070352653388
 40
1.160070352653388
 40
1.160070352653388
 10
100.4827154480061
 20
194.150502547474
 30
0.0
 10
100.5223243189442
 20
194.1528916774714
 30
0.0
 10
100.601543796128
 20
194.1576700563296
 30
0.0
 10
100.6969252351252
 20
194.1894778346132
 30
0.0
 10
100.7690131248394
 20
194.2247527308504
 30
0.0
 10
100.8214941825329
 20
194.2572071224905
 30
0.0
 10
100.871141303346
 20
194.2947401640443
 30
0.0
 10
100.9180429279531
 20
194.3374388201954
 30
0.0
 10
100.9613982859157
 20
194.384581851677
 30
0.0
 10
101.0012947017503
 20
194.4362392662746
 30
0.0
 10
101.0370720845454
 20
194.4915557422375
 30
0.0
 10
101.0687605645912
 20
194.5505799435202
 30
0.0
 10
101.0959176913465
 20
194.6124086045714
 30
0.0
 10
101.1259864799731
 20
194.698904776697
 30
0.0
 10
101.1523977098153
 20
194.8116872808288
 30
0.0
 10
101.1562948461677
 20
194.904230558344
 30
0.0
 10
101.1582434217492
 20
194.950502547474
 30
0.0
 11
100.4827154480061
 21
194.150502547474
 31
0.0
 11
100.6007041819756
 21
194.1628002169047
 31
0.0
 11
100.713759622406
 21
194.198748450845
 31
0.0
 11
100.7685400244504
 21
194.2256397897649
 31
0.0
 11
100.8204794348774
 21
194.2576822244461
 31
0.0
 11
100.8705311738849
 21
194.2954738431116
 31
0.0
 11
100.9169364595247
 21
194.3376669929788
 31
0.0
 11
100.9606890439916
 21
194.3851770134204
 31
0.0
 11
101.000199898463
 21
194.4362724597246
 31
0.0
 11
101.0362943748872
 21
194.492011872486
 31
0.0
 11
101.0677398342338
 21
194.5505025474738
 31
0.0
 11
101.0950773113769
 21
194.6127273591301
 31
0.0
 11
101.1175041000661
 21
194.6768864328134
 31
0.0
 11
101.1480684941308
 21
194.8121755106926
 31
0.0
 11
101.1582434217492
 21
194.950502547474
 31
0.0
  0
SPLINE
  5
407
330
1F
100
AcDbEntity
  8
Sichtbare_Kanten_TC_020513_DIN_
  6
Continuous
 62
     7
100
AcDbSpline
210
0.0
220
0.0
230
1.0
 70
     8
 71
     3
 72
    21
 73
    17
 74
    15
 42
0.000000001
 43
0.0000000001
 44
0.00000001
 40
0.0
 40
0.0
 40
0.0
 40
0.0
 40
0.1387007514310649
 40
0.2773994055979468
 40
0.3453651877898277
 40
0.4133303611749633
 40
0.4797380107127488
 40
0.5461435322889729
 40
0.6107334090454217
 40
0.6753204867228069
 40
0.7380398006191002
 40
0.8007564882497342
 40
0.8617845133824423
 40
0.9228093969149529
 40
1.041442475674031
 40
1.160070352652829
 40
1.160070352652829
 40
1.160070352652829
 40
1.160070352652829
 10
104.1045796503111
 20
224.350502547473
 30
0.0
 10
104.1026310747294
 20
224.396774536603
 30
0.0
 10
104.0987339383765
 20
224.4893178141182
 30
0.0
 10
104.0723227085352
 20
224.60210031825
 30
0.0
 10
104.0422539199084
 20
224.6885964903756
 30
0.0
 10
104.0150967931533
 20
224.7504251514268
 30
0.0
 10
103.9834083131073
 20
224.8094493527095
 30
0.0
 10
103.9476309303122
 20
224.8647658286725
 30
0.0
 10
103.9077345144773
 20
224.91642324327
 30
0.0
 10
103.8643791565146
 20
224.9635662747514
 30
0.0
 10
103.8174775319074
 20
225.0062649309022
 30
0.0
 10
103.7678304110946
 20
225.0437979724559
 30
0.0
 10
103.7153493534013
 20
225.076252364096
 30
0.0
 10
103.6432614636873
 20
225.1115272603334
 30
0.0
 10
103.5478800246899
 20
225.1433350386167
 30
0.0
 10
103.4686605475061
 20
225.1481134174753
 30
0.0
 10
103.4290516765681
 20
225.150502547473
 30
0.0
 11
104.1045796503111
 21
224.350502547473
 31
0.0
 11
104.0944047226923
 21
224.4888295842545
 31
0.0
 11
104.063840328628
 21
224.6241186621336
 31
0.0
 11
104.0414135399389
 21
224.6882777358169
 31
0.0
 11
104.0140760627958
 21
224.7505025474732
 31
0.0
 11
103.9826306034492
 21
224.808993222461
 31
0.0
 11
103.9465361270248
 21
224.8647326352224
 31
0.0
 11
103.9070252725531
 21
224.9158280815266
 31
0.0
 11
103.8632726880861
 21
224.963338101968
 31
0.0
 11
103.8168674024464
 21
225.0055312518349
 31
0.0
 11
103.7668156634392
 21
225.0433228705001
 31
0.0
 11
103.7148762530124
 21
225.0753653051815
 31
0.0
 11
103.6600958509679
 21
225.1022566441015
 31
0.0
 11
103.5470404105376
 21
225.1382048780417
 31
0.0
 11
103.4290516765681
 21
225.150502547473
 31
0.0
  0
SPLINE
  5
408
330
1F
100
AcDbEntity
  8
Sichtbare_Kanten_TC_020513_DIN_
  6
Continuous
 62
     7
100
AcDbSpline
210
0.0
220
0.0
230
1.0
 70
     8
 71
     3
 72
    21
 73
    17
 74
    15
 42
0.000000001
 43
0.0000000001
 44
0.00000001
 40
0.0
 40
0.0
 40
0.0
 40
0.0
 40
0.1387007514310064
 40
0.2773994055979822
 40
0.3453651877899717
 40
0.4133303611750667
 40
0.4797380107128136
 40
0.546143532288969
 40
0.6107334090452577
 40
0.6753204867226319
 40
0.7380398006192703
 40
0.8007564882502963
 40
0.8617845133830415
 40
0.922809396915426
 40
1.041442475674176
 40
1.160070352653393
 40
1.160070352653393
 40
1.160070352653393
 40
1.160070352653393
 10
101.1582434217492
 20
224.350502547474
 30
0.0
 10
101.1562948461677
 20
224.396774536604
 30
0.0
 10
101.1523977098153
 20
224.4893178141192
 30
0.0
 10
101.1259864799732
 20
224.6021003182509
 30
0.0
 10
101.0959176913465
 20
224.6885964903766
 30
0.0
 10
101.0687605645913
 20
224.7504251514278
 30
0.0
 10
101.0370720845453
 20
224.8094493527105
 30
0.0
 10
101.0012947017504
 20
224.8647658286735
 30
0.0
 10
100.9613982859157
 20
224.916423243271
 30
0.0
 10
100.9180429279532
 20
224.9635662747527
 30
0.0
 10
100.8711413033459
 20
225.0062649309037
 30
0.0
 10
100.8214941825328
 20
225.0437979724575
 30
0.0
 10
100.7690131248394
 20
225.0762523640976
 30
0.0
 10
100.6969252351254
 20
225.1115272603348
 30
0.0
 10
100.6015437961282
 20
225.1433350386187
 30
0.0
 10
100.5223243189443
 20
225.1481134174766
 30
0.0
 10
100.4827154480061
 20
225.150502547474
 30
0.0
 11
101.1582434217492
 21
224.350502547474
 31
0.0
 11
101.1480684941308
 21
224.4888295842554
 31
0.0
 11
101.1175041000661
 21
224.6241186621345
 31
0.0
 11
101.0950773113769
 21
224.6882777358179
 31
0.0
 11
101.0677398342338
 21
224.7505025474742
 31
0.0
 11
101.0362943748872
 21
224.808993222462
 31
0.0
 11
101.000199898463
 21
224.8647326352234
 31
0.0
 11
100.9606890439916
 21
224.9158280815276
 31
0.0
 11
100.9169364595247
 21
224.9633381019692
 31
0.0
 11
100.8705311738849
 21
225.0055312518364
 31
0.0
 11
100.8204794348773
 21
225.0433228705018
 31
0.0
 11
100.7685400244504
 21
225.0753653051831
 31
0.0
 11
100.713759622406
 21
225.102256644103
 31
0.0
 11
100.6007041819761
 21
225.1382048780433
 31
0.0
 11
100.4827154480061
 21
225.150502547474
 31
0.0
  0
LWPOLYLINE
  5
409
330
1F
100
AcDbEntity
  8
Sichtbare_Kanten_TC_020513_DIN_
  6
Continuous
 62
     7
100
AcDbPolyline
 90
       25
 70
     0
 43
0.0
 10
133.8319959824395
 20
221.650503024303
 10
133.6771526520565
 20
221.64827023431
 10
133.5228147690605
 20
221.641030654155
 10
133.3710279648615
 20
221.627965316021
 10
133.2238474076106
 20
221.608258828365
 10
133.0833282654596
 20
221.581094607555
 10
132.9515185540035
 20
221.545656069957
 10
132.8304686730225
 20
221.501126631939
 10
132.7214875405145
 20
221.446143731319
 10
132.6228347008545
 20
221.375098571025
 10
132.5435414498165
 20
221.286586865627
 10
132.4931826775385
 20
221.181549176418
 10
132.4757423584775
 20
221.064715728008
 10
132.4931826775385
 20
220.937055691921
 10
132.5435414498165
 20
220.800787553035
 10
132.6228347008545
 20
220.663175925456
 10
132.7214875405145
 20
220.531165942394
 10
132.8304686730225
 20
220.409014567577
 10
132.9515185540035
 20
220.29011999055
 10
133.0833282654596
 20
220.173951729976
 10
133.2238474076106
 20
220.06098185464
 10
133.3710279648615
 20
219.951681241237
 10
133.5228147690605
 20
219.846519574367
 10
133.6771526520565
 20
219.745970114909
 10
133.8319959824395
 20
219.650502547465
  0
LWPOLYLINE
  5
40A
330
1F
100
AcDbEntity
  8
Sichtbare_Kanten_TC_020513_DIN_
  6
Continuous
 62
     7
100
AcDbPolyline
 90
       25
 70
     0
 43
0.0
 10
133.8319959824395
 20
199.650502547465
 10
133.6771526520565
 20
199.555034980022
 10
133.5228147690605
 20
199.454485520564
 10
133.3710279648615
 20
199.349323853694
 10
133.2238474076106
 20
199.240023240291
 10
133.0833282654596
 20
199.127053364955
 10
132.9515185540035
 20
199.010885104381
 10
132.8304686730225
 20
198.891990527354
 10
132.7214875405145
 20
198.769839152538
 10
132.6228347008545
 20
198.637829169475
 10
132.5435414498165
 20
198.500217541896
 10
132.4931826775385
 20
198.363949403011
 10
132.4757423584775
 20
198.236289366924
 10
132.4931826775385
 20
198.119455918514
 10
132.5435414498165
 20
198.014418229305
 10
132.6228347008545
 20
197.925906523906
 10
132.7214875405145
 20
197.854861363613
 10
132.8304686730225
 20
197.799878462993
 10
132.9515185540035
 20
197.755349024974
 10
133.0833282654596
 20
197.719910487377
 10
133.2238474076106
 20
197.692746266567
 10
133.3710279648615
 20
197.673039778911
 10
133.5228147690605
 20
197.659974440777
 10
133.6771526520565
 20
197.652734860622
 10
133.8319959824395
 20
197.650502070629
  0
LWPOLYLINE
  5
40B
330
1F
100
AcDbEntity
  8
Sichtbare_Kanten_TC_020513_DIN_
  6
Continuous
 62
     7
100
AcDbPolyline
 90
       58
 70
     0
 43
0.0
 10
133.8319959824395
 20
199.650502547465
 10
134.5712080185725
 20
200.100702985965
 10
135.2697410767395
 20
200.538413271152
 10
135.9295501892876
 20
200.964472636424
 10
136.5524234955626
 20
201.379662498676
 10
137.1399917786435
 20
201.784713014804
 10
137.6937809174376
 20
202.180307850086
 10
138.2151785080745
 20
202.567088350498
 10
138.7054672425106
 20
202.945657715045
 10
139.1658249085265
 20
203.31658457204
 10
139.5973339264705
 20
203.680405363284
 10
140.0010004227475
 20
204.037628516399
 10
140.3777351563285
 20
204.388735636912
 10
140.7283821289855
 20
204.734185978614
 10
141.0537042801695
 20
205.074415847503
 10
141.3544168656185
 20
205.409843072139
 10
141.6311493103816
 20
205.740867301666
 10
141.8844881241635
 20
206.067872986041
 10
142.1149625962095
 20
206.391229674064
 10
142.3230400269345
 20
206.711294993602
 10
142.5091495697805
 20
207.028414651595
 10
142.6736679261045
 20
207.342924222194
 10
142.8169145768005
 20
207.655150636874
 10
142.9391803925345
 20
207.965413525544
 10
143.0407085602595
 20
208.274025663577
 10
143.1216945832085
 20
208.581294312917
 10
143.1822958176445
 20
208.887522637688
 10
143.2226314728575
 20
209.193010188483
 10
143.2427778427916
 20
209.498054317974
 10
143.2427778427916
 20
209.802950776957
 10
143.2226314728575
 20
210.107994906448
 10
143.1822958176445
 20
210.413482457243
 10
143.1216945832085
 20
210.719710782014
 10
143.0407085602595
 20
211.026979431354
 10
142.9391803925345
 20
211.335591569387
 10
142.8169145768005
 20
211.645854458057
 10
142.6736679261045
 20
211.958080872737
 10
142.5091495697805
 20
212.272590443336
 10
142.3230400269345
 20
212.589710101329
 10
142.1149625962095
 20
212.909775420867
 10
141.8844881241635
 20
213.23313210889
 10
141.6311493103816
 20
213.560137793266
 10
141.3544168656185
 20
213.891162022792
 10
141.0537042801695
 20
214.226589247428
 10
140.7283821289855
 20
214.566819116317
 10
140.3777351563285
 20
214.912269458019
 10
140.0010004227475
 20
215.263376578532
 10
139.5973339264705
 20
215.620599731647
 10
139.1658249085265
 20
215.984420522891
 10
138.7054672425106
 20
216.355347379886
 10
138.2151785080745
 20
216.733916744434
 10
137.6937809174376
 20
217.120697244846
 10
137.1399917786435
 20
217.516292080127
 10
136.5524234955626
 20
217.921342596256
 10
135.9295501892876
 20
218.336532458507
 10
135.2697410767395
 20
218.762591823779
 10
134.5712080185725
 20
219.200302108966
 10
133.8319959824395
 20
219.650502547465
  0
LWPOLYLINE
  5
40C
330
1F
100
AcDbEntity
  8
Sichtbare_Kanten_TC_020513_DIN_
  6
Continuous
 62
     7
100
AcDbPolyline
 90
       25
 70
     0
 43
0.0
 10
101.1897311395201
 20
226.150502309053
 10
101.2015376275571
 20
226.148617610185
 10
101.2128338998351
 20
226.142957553117
 10
101.2235865777531
 20
226.133516177385
 10
101.2337670510801
 20
226.120288714616
 10
101.2433419412171
 20
226.103266820161
 10
101.2522814458401
 20
226.082444533555
 10
101.2605533784421
 20
226.057815894334
 10
101.2681267446071
 20
226.029374942033
 10
101.2749705499211
 20
225.997114524095
 10
101.2810812181031
 20
225.961072787492
 10
101.2864992803131
 20
225.921441659181
 10
101.2912604993381
 20
225.878450020997
 10
101.2953982537781
 20
225.83232794687
 10
101.2989506906071
 20
225.783305510728
 10
101.3019523805171
 20
225.731608018129
 10
101.3044367021121
 20
225.677467927186
 10
101.3064418023621
 20
225.621111735551
 10
101.3080022519621
 20
225.562769517152
 10
101.3091812318361
 20
225.501731976716
 10
101.3100335782561
 20
225.437376841752
 10
101.3105914777311
 20
225.369890078752
 10
101.3108859246761
 20
225.299457654206
 10
101.3109479135071
 20
225.226266726701
 10
101.3108072465451
 20
225.150502070634
  0
LWPOLYLINE
  5
40D
330
1F
100
AcDbEntity
  8
Sichtbare_Kanten_TC_020513_DIN_
  6
Continuous
 62
     7
100
AcDbPolyline
 90
       25
 70
     0
 43
0.0
 10
101.3107798284091
 20
225.150738105027
 10
101.3104210084471
 20
225.072634562699
 10
101.3098225778141
 20
224.997296675889
 10
101.3089487737211
 20
224.92496882364
 10
101.3077626412901
 20
224.855891808717
 10
101.3062296098271
 20
224.790307625977
 10
101.3043091481721
 20
224.728337868897
 10
101.3019178098231
 20
224.668891772477
 10
101.2990079110661
 20
224.61181436464
 10
101.2955413049251
 20
224.557307109086
 10
101.2914846128021
 20
224.505569085328
 10
101.2867984956301
 20
224.456801757066
 10
101.2814495748081
 20
224.411205395905
 10
101.2753997033631
 20
224.368977889268
 10
101.2686143106021
 20
224.330321892945
 10
101.2610552495511
 20
224.295436486451
 10
101.2526843732391
 20
224.264438494889
 10
101.2435231393371
 20
224.237290963379
 10
101.2336085027251
 20
224.213940247742
 10
101.2229798024691
 20
224.194330319611
 10
101.2116763776331
 20
224.178407534806
 10
101.1997363751921
 20
224.166117057053
 10
101.1871991342101
 20
224.157406434266
 10
101.1741016095671
 20
224.152219638077
 10
101.1604843324221
 20
224.150503024308
  0
LWPOLYLINE
  5
40E
330
1F
100
AcDbEntity
  8
Sichtbare_Kanten_TC_020513_DIN_
  6
Continuous
 62
     7
100
AcDbPolyline
 90
       25
 70
     0
 43
0.0
 10
101.2839243596591
 20
224.430104836671
 10
101.2806806748901
 20
224.48463474199
 10
101.2771461194551
 20
224.536908015458
 10
101.2733028119601
 20
224.586919888704
 10
101.2690577691591
 20
224.635435685365
 10
101.2643799966371
 20
224.682510241716
 10
101.2592575734651
 20
224.72800527498
 10
101.2536738103421
 20
224.771784886567
 10
101.2476179784331
 20
224.81370960161
 10
101.2410745805301
 20
224.853643521516
 10
101.2340293115171
 20
224.891447171419
 10
101.2264702504671
 20
224.926983460634
 10
101.2183819001711
 20
224.960114106386
 10
101.2097523397001
 20
224.990702017991
 10
101.2005624955691
 20
225.018619641511
 10
101.1908111756831
 20
225.043825253694
 10
101.1805257981811
 20
225.066331967561
 10
101.1697337811982
 20
225.086149319856
 10
101.1584649270571
 20
225.103289231508
 10
101.1467478459871
 20
225.117761239259
 10
101.1346099561251
 20
225.12957726404
 10
101.1220810597931
 20
225.138748034685
 10
101.1091873830351
 20
225.145285472124
 10
101.0959599202671
 20
225.149200305193
 10
101.0824260896241
 20
225.150502070635
  0
LWPOLYLINE
  5
40F
330
1F
100
AcDbEntity
  8
Sichtbare_Kanten_TC_020513_DIN_
  6
Continuous
 62
     7
100
AcDbPolyline
 90
       25
 70
     0
 43
0.0
 10
103.3218739217311
 20
223.389774903504
 10
103.3218333905732
 20
223.370257958619
 10
103.3216903394261
 20
223.351506337373
 10
103.3214435761961
 20
223.333543881623
 10
103.3210871404201
 20
223.316395625321
 10
103.3206162637271
 20
223.300084218232
 10
103.3200249856511
 20
223.284627541749
 10
103.3193097299131
 20
223.270027980058
 10
103.3184728807011
 20
223.256280764787
 10
103.3175156301051
 20
223.243384703843
 10
103.3164367860351
 20
223.231338605134
 10
103.3152399247681
 20
223.220137700288
 10
103.3139250463041
 20
223.209780797211
 10
103.3124933427371
 20
223.200266703812
 10
103.3109460061581
 20
223.191590651719
 10
103.3092842286621
 20
223.183752640931
 10
103.3075080102481
 20
223.176750287263
 10
103.3056185430081
 20
223.170578822343
 10
103.3036182111301
 20
223.165239438264
 10
103.3015070146121
 20
223.160726174561
 10
103.2992861455471
 20
223.157040223328
 10
103.2969567960301
 20
223.154176816193
 10
103.2945189660582
 20
223.15213356897
 10
103.2919750398191
 20
223.15091048166
 10
103.2893262094051
 20
223.150502785889
  0
LWPOLYLINE
  5
410
330
1F
100
AcDbEntity
  8
Sichtbare_Kanten_TC_020513_DIN_
  6
Continuous
 62
     7
100
AcDbPolyline
 90
       25
 70
     0
 43
0.0
 10
103.2584569638761
 20
224.150503024308
 10
103.2664642518551
 20
224.152261361329
 10
103.2739899343051
 20
224.1575685589
 10
103.2810161298311
 20
224.166466340272
 10
103.2875225728551
 20
224.178997620789
 10
103.2934901898891
 20
224.195205315797
 10
103.2988999074491
 20
224.215133532731
 10
103.3037302678621
 20
224.238826379029
 10
103.3079645818271
 20
224.26632438585
 10
103.3115813916721
 20
224.297672852723
 10
103.3145795053041
 20
224.332892045228
 10
103.3170030301601
 20
224.37184010431
 10
103.3188901132141
 20
224.414308413712
 10
103.3202824777161
 20
224.460085972993
 10
103.3212158864531
 20
224.508962973801
 10
103.3217320626771
 20
224.560730799882
 10
103.3218691533601
 20
224.615178450791
 10
103.3216653054751
 20
224.67209611818
 10
103.3211610501801
 20
224.731275185792
 10
103.3203909581691
 20
224.792995795457
 10
103.3193848317661
 20
224.858265265672
 10
103.3181808179411
 20
224.926907166688
 10
103.3168194478551
 20
224.998687848298
 10
103.3153400605711
 20
225.073373660295
 10
103.3137831872501
 20
225.15073095247
  0
LWPOLYLINE
  5
411
330
1F
100
AcDbEntity
  8
Sichtbare_Kanten_TC_020513_DIN_
  6
Continuous
 62
     7
100
AcDbPolyline
 90
       25
 70
     0
 43
0.0
 10
103.3137903398071
 20
225.150502070634
 10
103.3121011441741
 20
225.226221427171
 10
103.3101234620601
 20
225.299378976075
 10
103.3078465646301
 20
225.36978636667
 10
103.3052525704891
 20
225.437254056184
 10
103.3023271745241
 20
225.501594886033
 10
103.2990560716181
 20
225.56262050554
 10
103.2953605836421
 20
225.621044978349
 10
103.2911644166501
 20
225.677472695558
 10
103.2864449208771
 20
225.731673583238
 10
103.2811806386501
 20
225.783419951646
 10
103.2753489202061
 20
225.832481726854
 10
103.2689271157771
 20
225.878628834932
 10
103.2618937676941
 20
225.921633586137
 10
103.2542274182831
 20
225.961265906541
 10
103.2459054177791
 20
225.997296914308
 10
103.2369003480471
 20
226.029537066667
 10
103.2272300904781
 20
226.05795417711
 10
103.2169315999541
 20
226.082555398195
 10
103.2060418313541
 20
226.103350266664
 10
103.1946001237431
 20
226.120347127168
 10
103.1826458161861
 20
226.133551940172
 10
103.1702158635651
 20
226.142974242418
 10
103.1573484128511
 20
226.148622378557
 10
103.1440828031101
 20
226.150502309053
  0
LWPOLYLINE
  5
412
330
1F
100
AcDbEntity
  8
Sichtbare_Kanten_TC_020513_DIN_
  6
Continuous
 62
     7
100
AcDbPolyline
 90
       25
 70
     0
 43
0.0
 10
101.1604843324221
 20
195.150502070633
 10
101.1741016095671
 20
195.148785456864
 10
101.1871991342101
 20
195.143598660675
 10
101.1997363751921
 20
195.134888037888
 10
101.2116763776331
 20
195.122597560135
 10
101.2229798024691
 20
195.10667477533
 10
101.2336085027251
 20
195.087064847199
 10
101.2435231393371
 20
195.063714131562
 10
101.2526843732391
 20
195.036566600052
 10
101.2610552495511
 20
195.005568608491
 10
101.2686143106021
 20
194.970683201996
 10
101.2753997033631
 20
194.932027205674
 10
101.2814495748081
 20
194.889799699036
 10
101.2867984956301
 20
194.844203337876
 10
101.2914846128021
 20
194.795436009614
 10
101.2955413049251
 20
194.743697985856
 10
101.2990079110661
 20
194.689190730302
 10
101.3019178098231
 20
194.632113322465
 10
101.3043091481721
 20
194.572667226044
 10
101.3062296098271
 20
194.510697468964
 10
101.3077626412901
 20
194.445113286225
 10
101.3089487737211
 20
194.376036271302
 10
101.3098225778141
 20
194.303708419053
 10
101.3104210084471
 20
194.228370532243
 10
101.3107798284091
 20
194.150266989915
  0
LWPOLYLINE
  5
413
330
1F
100
AcDbEntity
  8
Sichtbare_Kanten_TC_020513_DIN_
  6
Continuous
 62
     7
100
AcDbPolyline
 90
       25
 70
     0
 43
0.0
 10
101.3108072465451
 20
194.150503024308
 10
101.3109479135071
 20
194.074727639405
 10
101.3108871167691
 20
194.001535519807
 10
101.3105926698241
 20
193.93111501619
 10
101.3100347703492
 20
193.863654479234
 10
101.3091824239291
 20
193.799341067521
 10
101.3080058282411
 20
193.738359555451
 10
101.3064429944551
 20
193.679952964036
 10
101.3044355100191
 20
193.623545512406
 10
101.3019488042392
 20
193.569368466584
 10
101.2989459222351
 20
193.517645940034
 10
101.2953934854061
 20
193.468606814592
 10
101.2912533467801
 20
193.422479972093
 10
101.2864921277561
 20
193.379491910188
 10
101.2810740655461
 20
193.33987031862
 10
101.2749622052701
 20
193.303844079225
 10
101.2681172078641
 20
193.271599158494
 10
101.2605438416991
 20
193.243170127122
 10
101.2522731011901
 20
193.218549832551
 10
101.2433359807521
 20
193.19773350641
 10
101.2337634748021
 20
193.180715188234
 10
101.2235853856601
 20
193.167488917558
 10
101.2128338998351
 20
193.158047541826
 10
101.2015388196501
 20
193.152387484758
 10
101.1897311395201
 20
193.15050278589
  0
LWPOLYLINE
  5
414
330
1F
100
AcDbEntity
  8
Sichtbare_Kanten_TC_020513_DIN_
  6
Continuous
 62
     7
100
AcDbPolyline
 90
       25
 70
     0
 43
0.0
 10
101.0824260896241
 20
194.150503024309
 10
101.0959599202671
 20
194.151804789751
 10
101.1091873830351
 20
194.15571962282
 10
101.1220810597931
 20
194.162257060258
 10
101.1346099561251
 20
194.171427830904
 10
101.1467478459871
 20
194.183243855684
 10
101.1584649270571
 20
194.197715863435
 10
101.1697337811982
 20
194.214855775087
 10
101.1805257981811
 20
194.234673127382
 10
101.1908111756831
 20
194.257179841249
 10
101.2005624955691
 20
194.282385453431
 10
101.2097523397001
 20
194.310303076951
 10
101.2183819001711
 20
194.340890988557
 10
101.2264702504671
 20
194.374021634309
 10
101.2340293115171
 20
194.409557923524
 10
101.2410745805301
 20
194.447361573427
 10
101.2476179784331
 20
194.487295493333
 10
101.2536738103421
 20
194.529220208375
 10
101.2592575734651
 20
194.572999819963
 10
101.2643799966371
 20
194.618494853227
 10
101.2690577691591
 20
194.665569409578
 10
101.2733028119601
 20
194.714085206239
 10
101.2771461194551
 20
194.764097079484
 10
101.2806806748901
 20
194.816370352952
 10
101.2839243596591
 20
194.870900258271
  0
LWPOLYLINE
  5
415
330
1F
100
AcDbEntity
  8
Sichtbare_Kanten_TC_020513_DIN_
  6
Continuous
 62
     7
100
AcDbPolyline
 90
       25
 70
     0
 43
0.0
 10
103.1440828031101
 20
193.15050278589
 10
103.1573484128511
 20
193.152382716386
 10
103.1702158635651
 20
193.158030852525
 10
103.1826458161861
 20
193.167453154771
 10
103.1946001237431
 20
193.180657967775
 10
103.2060418313541
 20
193.197654828279
 10
103.2169315999541
 20
193.218449696748
 10
103.2272300904781
 20
193.243050917833
 10
103.2369003480471
 20
193.271468028276
 10
103.2459054177791
 20
193.303708180635
 10
103.2542274182831
 20
193.339739188402
 10
103.2618937676941
 20
193.379371508806
 10
103.2689271157771
 20
193.422376260011
 10
103.2753489202061
 20
193.468523368089
 10
103.2811806386501
 20
193.517585143296
 10
103.2864449208771
 20
193.569331511705
 10
103.2911644166501
 20
193.623532399385
 10
103.2953605836421
 20
193.679960116593
 10
103.2990560716181
 20
193.738384589402
 10
103.3023271745241
 20
193.799410208909
 10
103.3052525704891
 20
193.863751038758
 10
103.3078465646301
 20
193.931218728273
 10
103.3101234620601
 20
194.001626118867
 10
103.3121011441741
 20
194.074783667771
 10
103.3137903398071
 20
194.150503024308
  0
LWPOLYLINE
  5
416
330
1F
100
AcDbEntity
  8
Sichtbare_Kanten_TC_020513_DIN_
  6
Continuous
 62
     7
100
AcDbPolyline
 90
       25
 70
     0
 43
0.0
 10
103.3137831872501
 20
194.150274142472
 10
103.3153400605711
 20
194.227631434648
 10
103.3168194478551
 20
194.302317246644
 10
103.3181808179411
 20
194.374097928254
 10
103.3193848317661
 20
194.44273982927
 10
103.3203909581691
 20
194.508009299485
 10
103.3211610501801
 20
194.56972990915
 10
103.3216653054751
 20
194.628908976762
 10
103.3218691533601
 20
194.685826644151
 10
103.3217320626771
 20
194.74027429506
 10
103.3212158864531
 20
194.79204212114
 10
103.3202824777161
 20
194.840919121949
 10
103.3188901132141
 20
194.886696681229
 10
103.3170030301601
 20
194.929164990632
 10
103.3145795053041
 20
194.968113049714
 10
103.3115813916721
 20
195.003332242219
 10
103.3079645818271
 20
195.034680709092
 10
103.3037302678621
 20
195.062178715912
 10
103.2988999074491
 20
195.085871562211
 10
103.2934901898891
 20
195.105799779145
 10
103.2875225728551
 20
195.122007474152
 10
103.2810161298311
 20
195.13453875467
 10
103.2739899343051
 20
195.143436536042
 10
103.2664642518551
 20
195.148743733613
 10
103.2584569638761
 20
195.150502070633
  0
LWPOLYLINE
  5
417
330
1F
100
AcDbEntity
  8
Sichtbare_Kanten_TC_020513_DIN_
  6
Continuous
 62
     7
100
AcDbPolyline
 90
       25
 70
     0
 43
0.0
 10
103.2893262094051
 20
196.150502309052
 10
103.2919762319121
 20
196.150094613282
 10
103.2945189660582
 20
196.148871525971
 10
103.2969567960301
 20
196.146828278748
 10
103.2992861455471
 20
196.143964871613
 10
103.3015070146121
 20
196.14027892038
 10
103.3036182111301
 20
196.135765656678
 10
103.3056185430081
 20
196.130425080506
 10
103.3075080102481
 20
196.124254807679
 10
103.3092842286621
 20
196.117251261918
 10
103.3109460061581
 20
196.10941325113
 10
103.3124933427371
 20
196.100738391129
 10
103.3139250463041
 20
196.091223105637
 10
103.3152399247681
 20
196.080867394654
 10
103.3164367860351
 20
196.069666489808
 10
103.3175156301051
 20
196.057619199006
 10
103.3184728807011
 20
196.044724330155
 10
103.3193097299131
 20
196.030977114884
 10
103.3200249856511
 20
196.0163763611
 10
103.3206162637271
 20
196.00092087671
 10
103.3210871404201
 20
195.984610661714
 10
103.3214435761961
 20
195.967461213319
 10
103.3216915315181
 20
195.949498757569
 10
103.3218333905732
 20
195.930747136323
 10
103.3218739217311
 20
195.911230191438
  0
LWPOLYLINE
  5
418
330
1F
100
AcDbEntity
  8
Sichtbare_Kanten_TC_020513_DIN_
  6
Continuous
 62
     7
100
AcDbPolyline
 90
       25
 70
     0
 43
0.0
 10
133.8319959823725
 20
105.892378066361
 10
133.6771526519885
 20
105.796910498918
 10
133.5228147689936
 20
105.69636103946
 10
133.3710279647945
 20
105.59119937259
 10
133.2238474075435
 20
105.481898759187
 10
133.0833282653925
 20
105.368928883851
 10
132.9515185539355
 20
105.252760623277
 10
132.8304686729545
 20
105.13386604625
 10
132.7214875404475
 20
105.011714671433
 10
132.6228347007865
 20
104.879704688371
 10
132.5435414497486
 20
104.742093060792
 10
132.4931826774715
 20
104.605824921906
 10
132.4757423584096
 20
104.478164885819
 10
132.4931826774715
 20
104.361331437409
 10
132.5435414497486
 20
104.2562937482
 10
132.6228347007865
 20
104.167782042802
 10
132.7214875404475
 20
104.096736882508
 10
132.8304686729545
 20
104.041753981889
 10
132.9515185539355
 20
103.99722454387
 10
133.0833282653925
 20
103.961786006272
 10
133.2238474075435
 20
103.934621785462
 10
133.3710279647945
 20
103.914915297807
 10
133.5228147689936
 20
103.901849959672
 10
133.6771526519885
 20
103.894610379518
 10
133.8319959823725
 20
103.892377589524
  0
LWPOLYLINE
  5
419
330
1F
100
AcDbEntity
  8
Sichtbare_Kanten_TC_020513_DIN_
  6
Continuous
 62
     7
100
AcDbPolyline
 90
       58
 70
     0
 43
0.0
 10
133.8319959823725
 20
105.892378066361
 10
134.5712080185045
 20
106.342578504861
 10
135.2697410766716
 20
106.780288790048
 10
135.9295501892205
 20
107.20634815532
 10
136.5524234954946
 20
107.621538017571
 10
137.1399917785755
 20
108.0265885337
 10
137.6937809173696
 20
108.422183368981
 10
138.2151785080066
 20
108.808963869393
 10
138.7054672424425
 20
109.187533233941
 10
139.1658249084586
 20
109.558460090936
 10
139.5973339264025
 20
109.92228088218
 10
140.0010004226795
 20
110.279504035294
 10
140.3777351562615
 20
110.630611155808
 10
140.7283821289175
 20
110.97606149751
 10
141.0537042801015
 20
111.316291366399
 10
141.3544168655505
 20
111.651718591035
 10
141.6311493103136
 20
111.982742820561
 10
141.8844881240955
 20
112.309748504937
 10
142.1149625961415
 20
112.63310519296
 10
142.3230400268665
 20
112.953170512498
 10
142.5091495697135
 20
113.270290170491
 10
142.6736679260366
 20
113.58479974109
 10
142.8169145767325
 20
113.89702615577
 10
142.9391803924676
 20
114.20728904444
 10
143.0407085601925
 20
114.515901182473
 10
143.1216945831415
 20
114.823169831813
 10
143.1822958175775
 20
115.129398156584
 10
143.2226314727895
 20
115.434885707379
 10
143.2427778427236
 20
115.73992983687
 10
143.2427778427236
 20
116.044826295853
 10
143.2226314727895
 20
116.349870425344
 10
143.1822958175775
 20
116.655357976139
 10
143.1216945831415
 20
116.96158630091
 10
143.0407085601925
 20
117.26885495025
 10
142.9391803924676
 20
117.577467088283
 10
142.8169145767325
 20
117.887729976953
 10
142.6736679260366
 20
118.199956391633
 10
142.5091495697135
 20
118.514465962232
 10
142.3230400268665
 20
118.831585620225
 10
142.1149625961415
 20
119.151650939763
 10
141.8844881240955
 20
119.475007627786
 10
141.6311493103136
 20
119.802013312161
 10
141.3544168655505
 20
120.133037541688
 10
141.0537042801015
 20
120.468464766324
 10
140.7283821289175
 20
120.808694635213
 10
140.3777351562615
 20
121.154144976914
 10
140.0010004226795
 20
121.505252097428
 10
139.5973339264025
 20
121.862475250543
 10
139.1658249084586
 20
122.226296041787
 10
138.7054672424425
 20
122.597222898782
 10
138.2151785080066
 20
122.975792263329
 10
137.6937809173696
 20
123.362572763741
 10
137.1399917785755
 20
123.758167599023
 10
136.5524234954946
 20
124.163218115151
 10
135.9295501892205
 20
124.578407977403
 10
135.2697410766716
 20
125.004467342675
 10
134.5712080185045
 20
125.442177627862
 10
133.8319959823725
 20
125.892378066361
  0
LWPOLYLINE
  5
41A
330
1F
100
AcDbEntity
  8
Sichtbare_Kanten_TC_020513_DIN_
  6
Continuous
 62
     7
100
AcDbPolyline
 90
       25
 70
     0
 43
0.0
 10
133.8319959823725
 20
127.892378543199
 10
133.6771526519885
 20
127.890145753205
 10
133.5228147689936
 20
127.882906173051
 10
133.3710279647945
 20
127.869840834916
 10
133.2238474075435
 20
127.85013434726
 10
133.0833282653925
 20
127.82297012645
 10
132.9515185539355
 20
127.787531588853
 10
132.8304686729545
 20
127.743002150834
 10
132.7214875404475
 20
127.688019250215
 10
132.6228347007865
 20
127.616974089921
 10
132.5435414497486
 20
127.528462384522
 10
132.4931826774715
 20
127.423424695313
 10
132.4757423584096
 20
127.306591246903
 10
132.4931826774715
 20
127.178931210816
 10
132.5435414497486
 20
127.042663071931
 10
132.6228347007865
 20
126.905051444352
 10
132.7214875404475
 20
126.773041461289
 10
132.8304686729545
 20
126.650890086472
 10
132.9515185539355
 20
126.531995509446
 10
133.0833282653925
 20
126.415827248872
 10
133.2238474075435
 20
126.302857373536
 10
133.3710279647945
 20
126.193556760133
 10
133.5228147689936
 20
126.088395093263
 10
133.6771526519885
 20
125.987845633805
 10
133.8319959823725
 20
125.892378066361
  0
LWPOLYLINE
  5
41B
330
1F
100
AcDbEntity
  8
Sichtbare_Kanten_TC_020513_DIN_
  6
Continuous
 62
     7
100
AcDbPolyline
 90
       25
 70
     0
 43
0.0
 10
101.1897311394531
 20
123.971511100114
 10
101.2015376274901
 20
123.886799786866
 10
101.2128338997681
 20
123.801079963029
 10
101.2235865776851
 20
123.714664552987
 10
101.2337670510131
 20
123.627867077172
 10
101.2433419411491
 20
123.541001056016
 10
101.2522814457731
 20
123.454380605996
 10
101.2605533783751
 20
123.368318651498
 10
101.2681267445401
 20
123.283128712953
 10
101.2749705498531
 20
123.199124906838
 10
101.2810812180351
 20
123.116604064286
 10
101.2864992802451
 20
123.035805199922
 10
101.2912604992701
 20
122.956949446977
 10
101.2953982537101
 20
122.880259726823
 10
101.2989506905391
 20
122.805958364785
 10
101.3019523804501
 20
122.734268282235
 10
101.3044367020441
 20
122.665411804498
 10
101.3064418022941
 20
122.599610660851
 10
101.3080022518951
 20
122.537087176621
 10
101.3091812317681
 20
122.477045033753
 10
101.3100335781891
 20
122.418864939988
 10
101.3105914776641
 20
122.362849090875
 10
101.3108859246091
 20
122.309299085916
 10
101.3109479134391
 20
122.258515928567
 10
101.3108072464781
 20
122.210802410424
  0
LWPOLYLINE
  5
41C
330
1F
100
AcDbEntity
  8
Sichtbare_Kanten_TC_020513_DIN_
  6
Continuous
 62
     7
100
AcDbPolyline
 90
       25
 70
     0
 43
0.0
 10
101.3107798283411
 20
122.210410211862
 10
101.3104210083801
 20
122.161009286225
 10
101.3098225777461
 20
122.108413551629
 10
101.3089487736541
 20
122.052910302461
 10
101.3077626412231
 20
121.994788025201
 10
101.3062296097591
 20
121.934334014237
 10
101.3043091481041
 20
121.87171277839
 10
101.3019178097561
 20
121.805865143121
 10
101.2990079109981
 20
121.736667726815
 10
101.2955413048582
 20
121.664354775727
 10
101.2914846127341
 20
121.589160536111
 10
101.2867984955621
 20
121.51131925422
 10
101.2814495747401
 20
121.431064580262
 10
101.2753997032951
 20
121.348630760491
 10
101.2686143105341
 20
121.264251445115
 10
101.2610552494841
 20
121.17816207248
 10
101.2526843731711
 20
121.090629075349
 10
101.2435231392691
 20
121.001972530663
 10
101.2336085026581
 20
120.912520860017
 10
101.2229798024011
 20
120.822599206746
 10
101.2116763775661
 20
120.732534204305
 10
101.1997363751251
 20
120.642652784169
 10
101.1871991341431
 20
120.553280983746
 10
101.1741016095001
 20
120.46474543649
 10
101.1604843323541
 20
120.37737247783
  0
LWPOLYLINE
  5
41D
330
1F
100
AcDbEntity
  8
Sichtbare_Kanten_TC_020513_DIN_
  6
Continuous
 62
     7
100
AcDbPolyline
 90
       25
 70
     0
 43
0.0
 10
103.2584569638091
 20
120.939522360146
 10
103.2664642517881
 20
121.026436661065
 10
103.2739899342371
 20
121.114430998147
 10
103.2810161297631
 20
121.203179333985
 10
103.2875225727871
 20
121.292357419312
 10
103.2934901898221
 20
121.381640408814
 10
103.2988999073821
 20
121.470703457177
 10
103.3037302677941
 20
121.559221719086
 10
103.3079645817591
 20
121.646870945275
 10
103.3115813916041
 20
121.733325694383
 10
103.3145795052361
 20
121.818269465745
 10
103.3170030300931
 20
121.901447747529
 10
103.3188901131461
 20
121.982634638131
 10
103.3202824776481
 20
122.061601851762
 10
103.3212158863861
 20
122.138122890771
 10
103.3217320626091
 20
122.211971257508
 10
103.3218691532921
 20
122.282918666184
 10
103.3216653054071
 20
122.350739811242
 10
103.3211610501121
 20
122.415206406892
 10
103.3203909581021
 20
122.476585481942
 10
103.3193848316981
 20
122.535861109078
 10
103.3181808178741
 20
122.592822883904
 10
103.3168194477871
 20
122.64719900924
 10
103.3153400605041
 20
122.698720668138
 10
103.3137831871821
 20
122.747116063416
  0
LWPOLYLINE
  5
41E
330
1F
100
AcDbEntity
  8
Sichtbare_Kanten_TC_020513_DIN_
  6
Continuous
 62
     7
100
AcDbPolyline
 90
       25
 70
     0
 43
0.0
 10
103.3137903397391
 20
122.747499917329
 10
103.3121011441072
 20
122.794693086923
 10
103.3101234619931
 20
122.844933842004
 10
103.3078465645621
 20
122.897924755395
 10
103.3052525704221
 20
122.953370188058
 10
103.3023271744561
 20
123.010972116769
 10
103.2990560715511
 20
123.070435498536
 10
103.2953605835751
 20
123.132478569329
 10
103.2911644165831
 20
123.197781418145
 10
103.2864449208091
 20
123.266123507798
 10
103.2811806385831
 20
123.337285493195
 10
103.2753489201381
 20
123.411046837151
 10
103.2689271157101
 20
123.487187598527
 10
103.2618937676261
 20
123.565488432229
 10
103.2542274182151
 20
123.645728801072
 10
103.2459054177121
 20
123.727689359963
 10
103.2369003479791
 20
123.811132882417
 10
103.2272300904111
 20
123.895761941255
 10
103.2169315998861
 20
123.981264804185
 10
103.2060418312861
 20
124.067329738915
 10
103.1946001236751
 20
124.153645013154
 10
103.1826458161191
 20
124.239899490655
 10
103.1702158634971
 20
124.32578084308
 10
103.1573484127831
 20
124.410977338136
 10
103.1440828030421
 20
124.495177839578
  0
DIMENSION
  5
42A
330
1F
100
AcDbEntity
  8
1
100
AcDbDimension
  2
*D3
 10
67.5452957337215
 20
193.150502547473
 30
0.0
 11
64.0452957337215
 21
209.650502547473
 31
0.0
 70
    32
  1
<>
 71
     5
 42
-1.0
 53
90.0
  3
ME10_DIM_10
100
AcDbAlignedDimension
 13
78.1445987904782
 23
226.150502547473
 33
0.0
 14
78.1445987904782
 24
193.150502547473
 34
0.0
 50
90.0
100
AcDbRotatedDimension
  0
DIMENSION
  5
435
330
1F
100
AcDbEntity
  8
1
100
AcDbDimension
  2
*D4
 10
67.5452957337215
 20
103.892378066361
 30
0.0
 11
63.89529573372153
 21
124.1448098861339
 31
0.0
 70
    32
  1
<>
 71
     5
 42
-1.0
 53
90.0
  3
ME10_DIM_11
100
AcDbAlignedDimension
 13
93.5452957337215
 23
144.3972417059067
 33
0.0
 14
87.5452957337215
 24
103.892378066361
 34
0.0
 50
90.0
100
AcDbRotatedDimension
  0
DIMENSION
  5
440
330
1F
100
AcDbEntity
  8
1
100
AcDbDimension
  2
*D5
 10
159.5452957337215
 20
127.892378543199
 30
0.0
 11
156.0452957337215
 21
115.8923780663615
 31
0.0
 70
    32
  1
<>
 71
     5
 42
-1.0
 53
90.0
  3
ME10_DIM_12
100
AcDbAlignedDimension
 13
143.2452955429196
 23
103.892377589524
 33
0.0
 14
143.2452955429196
 24
127.892378543199
 34
0.0
 50
90.0
100
AcDbRotatedDimension
  0
DIMENSION
  5
44B
330
1F
100
AcDbEntity
  8
1
100
AcDbDimension
  2
*D6
 10
87.54529573372149
 20
88.892378066361
 30
0.0
 11
116.0452957336875
 21
92.392378066361
 31
0.0
 70
    32
  1
<>
 71
     5
 42
-1.0
 53
0.00013888888889
  3
ME10_DIM_13
100
AcDbAlignedDimension
 13
144.5452957336535
 23
104.392378066361
 33
0.0
 14
87.5452957337215
 24
103.892378066361
 34
0.0
100
AcDbRotatedDimension
  0
DIMENSION
  5
456
330
1F
100
AcDbEntity
  8
1
100
AcDbDimension
  2
*D7
 10
159.5452957337215
 20
219.136502547469
 30
0.0
 11
156.0452957337215
 21
209.6505025474685
 31
0.0
 70
    32
  1
PG11
 71
     5
 42
-1.0
 53
90.0
  3
ME10_DIM_14
100
AcDbAlignedDimension
 13
144.5545659789257
 23
200.164502547468
 33
0.0
 14
144.5545659789257
 24
219.136502547469
 34
0.0
 50
90.0
100
AcDbRotatedDimension
  0
ENDSEC
  0
SECTION
  2
OBJECTS
  0
DICTIONARY
  5
C
330
0
100
AcDbDictionary
281
     1
  3
ACAD_GROUP
350
D
  3
ACAD_LAYOUT
350
1A
  3
ACAD_MATERIAL
350
3B
  3
ACAD_MLEADERSTYLE
350
459
  3
ACAD_MLINESTYLE
350
17
  3
ACAD_PLOTSETTINGS
350
19
  3
ACAD_PLOTSTYLENAME
350
E
  3
ACAD_VISUALSTYLE
350
2A
  3
AcDbVariableDictionary
350
457
  0
DICTIONARY
  5
D
102
{ACAD_REACTORS
330
C
102
}
330
C
100
AcDbDictionary
281
     1
  0
DICTIONARY
  5
1A
102
{ACAD_REACTORS
330
C
102
}
330
C
100
AcDbDictionary
281
     1
  3
Layout1
350
1E
  3
Layout2
350
26
  3
Model
350
22
  0
DICTIONARY
  5
3B
102
{ACAD_REACTORS
330
C
102
}
330
C
100
AcDbDictionary
281
     1
  3
ByBlock
350
3D
  3
ByLayer
350
3C
  3
Global
350
3E
  0
DICTIONARY
  5
459
102
{ACAD_REACTORS
330
C
102
}
330
C
100
AcDbDictionary
281
     1
  0
DICTIONARY
  5
17
102
{ACAD_REACTORS
330
C
102
}
330
C
100
AcDbDictionary
281
     1
  3
Standard
350
18
  0
DICTIONARY
  5
19
102
{ACAD_REACTORS
330
C
102
}
330
C
100
AcDbDictionary
281
     1
  0
ACDBDICTIONARYWDFLT
  5
E
102
{ACAD_REACTORS
330
C
102
}
330
C
100
AcDbDictionary
281
     1
  3
Normal
350
F
100
AcDbDictionaryWithDefault
340
F
  0
DICTIONARY
  5
2A
102
{ACAD_REACTORS
330
C
102
}
330
C
100
AcDbDictionary
281
     1
  3
2dWireframe
350
2F
  3
3D Hidden
350
31
  3
3dWireframe
350
30
  3
Basic
350
32
  3
Brighten
350
36
  3
ColorChange
350
3A
  3
Conceptual
350
34
  3
Dim
350
35
  3
Facepattern
350
39
  3
Flat
350
2B
  3
FlatWithEdges
350
2C
  3
Gouraud
350
2D
  3
GouraudWithEdges
350
2E
  3
Linepattern
350
38
  3
Realistic
350
33
  3
Thicken
350
37
  0
DICTIONARY
  5
457
102
{ACAD_REACTORS
330
C
102
}
330
C
100
AcDbDictionary
281
     1
  3
DIMASSOC
350
45A
  3
HIDETEXT
350
45B
  0
LAYOUT
  5
1E
102
{ACAD_REACTORS
330
1A
102
}
330
1A
100
AcDbPlotSettings
  1

  2
none_device
  4

  6

 40
0.0
 41
0.0
 42
0.0
 43
0.0
 44
0.0
 45
0.0
 46
0.0
 47
0.0
 48
0.0
 49
0.0
140
0.0
141
0.0
142
1.0
143
1.0
 70
   688
 72
     0
 73
     0
 74
     5
  7

 75
    16
147
1.0
148
0.0
149
0.0
100
AcDbLayout
  1
Layout1
 70
     1
 71
     1
 10
0.0
 20
0.0
 11
12.0
 21
9.0
 12
0.0
 22
0.0
 32
0.0
 14
1.00000000000000E+20
 24
1.00000000000000E+20
 34
1.00000000000000E+20
 15
-1.00000000000000E+20
 25
-1.00000000000000E+20
 35
-1.00000000000000E+20
146
0.0
 13
0.0
 23
0.0
 33
0.0
 16
1.0
 26
0.0
 36
0.0
 17
0.0
 27
1.0
 37
0.0
 76
     0
330
1B
  0
LAYOUT
  5
26
102
{ACAD_REACTORS
330
1A
102
}
330
1A
100
AcDbPlotSettings
  1

  2
none_device
  4

  6

 40
0.0
 41
0.0
 42
0.0
 43
0.0
 44
0.0
 45
0.0
 46
0.0
 47
0.0
 48
0.0
 49
0.0
140
0.0
141
0.0
142
1.0
143
1.0
 70
   688
 72
     0
 73
     0
 74
     5
  7

 75
    16
147
1.0
148
0.0
149
0.0
100
AcDbLayout
  1
Layout2
 70
     1
 71
     2
 10
0.0
 20
0.0
 11
0.0
 21
0.0
 12
0.0
 22
0.0
 32
0.0
 14
0.0
 24
0.0
 34
0.0
 15
0.0
 25
0.0
 35
0.0
146
0.0
 13
0.0
 23
0.0
 33
0.0
 16
1.0
 26
0.0
 36
0.0
 17
0.0
 27
1.0
 37
0.0
 76
     0
330
23
  0
LAYOUT
  5
22
102
{ACAD_REACTORS
330
1A
102
}
330
1A
100
AcDbPlotSettings
  1

  2
none_device
  4

  6

 40
0.0
 41
0.0
 42
0.0
 43
0.0
 44
0.0
 45
0.0
 46
0.0
 47
0.0
 48
0.0
 49
0.0
140
0.0
141
0.0
142
1.0
143
1.0
 70
  1712
 72
     0
 73
     0
 74
     0
  7

 75
     0
147
1.0
148
0.0
149
0.0
100
AcDbLayout
  1
Model
 70
     1
 71
     0
 10
0.0
 20
0.0
 11
12.0
 21
9.0
 12
0.0
 22
0.0
 32
0.0
 14
0.0
 24
0.0
 34
0.0
 15
210.0000000000001
 25
297.0000000000001
 35
0.0
146
0.0
 13
0.0
 23
0.0
 33
0.0
 16
1.0
 26
0.0
 36
0.0
 17
0.0
 27
1.0
 37
0.0
 76
     0
330
1F
331
29
  0
MATERIAL
  5
3D
102
{ACAD_REACTORS
330
3B
102
}
102
{ACAD_XDICTIONARY
360
47E
102
}
330
3B
100
AcDbMaterial
  1
ByBlock
  0
MATERIAL
  5
3C
102
{ACAD_REACTORS
330
3B
102
}
102
{ACAD_XDICTIONARY
360
47C
102
}
330
3B
100
AcDbMaterial
  1
ByLayer
  0
MATERIAL
  5
3E
102
{ACAD_REACTORS
330
3B
102
}
102
{ACAD_XDICTIONARY
360
480
102
}
330
3B
100
AcDbMaterial
  1
Global
  0
MLINESTYLE
  5
18
102
{ACAD_REACTORS
330
17
102
}
330
17
100
AcDbMlineStyle
  2
Standard
 70
     0
  3

 62
   256
 51
90.0
 52
90.0
 71
     2
 49
0.5
 62
   256
  6
BYLAYER
 49
-0.5
 62
   256
  6
BYLAYER
  0
ACDBPLACEHOLDER
  5
F
102
{ACAD_REACTORS
330
E
102
}
330
E
  0
VISUALSTYLE
  5
2F
102
{ACAD_REACTORS
330
2A
102
}
102
{ACAD_XDICTIONARY
360
464
102
}
330
2A
100
AcDbVisualStyle
  2
2dWireframe
 70
     4
 71
     0
 72
     2
 73
     0
 90
        0
 40
-0.6
 41
-30.0
 62
     5
 63
     7
 74
     1
 91
        4
 64
     7
 65
   257
 75
     1
175
     1
 42
1.0
 92
        0
 66
   257
 43
1.0
 76
     1
 77
     6
 78
     2
 67
     7
 79
     5
170
     0
171
     0
290
     0
174
     0
 93
        1
 44
0.0
173
     0
291
     0
 45
0.0
1001
ACAD
1000
AcDbSavedByObjectVersion
1070
     0
  0
VISUALSTYLE
  5
31
102
{ACAD_REACTORS
330
2A
102
}
102
{ACAD_XDICTIONARY
360
468
102
}
330
2A
100
AcDbVisualStyle
  2
3D Hidden
 70
     6
 71
     1
 72
     2
 73
     2
 90
        0
 40
-0.6
 41
-30.0
 62
     5
 63
     7
 74
     2
 91
        2
 64
     7
 65
   257
 75
     2
175
     1
 42
40.0
 92
        0
 66
   257
 43
1.0
 76
     1
 77
     6
 78
     2
 67
     7
 79
     3
170
     0
171
     0
290
     0
174
     0
 93
        1
 44
0.0
173
     0
291
     0
 45
0.0
1001
ACAD
1000
AcDbSavedByObjectVersion
1070
     0
  0
VISUALSTYLE
  5
30
102
{ACAD_REACTORS
330
2A
102
}
102
{ACAD_XDICTIONARY
360
466
102
}
330
2A
100
AcDbVisualStyle
  2
3dWireframe
 70
     5
 71
     0
 72
     2
 73
     0
 90
        0
 40
-0.6
 41
-30.0
 62
     5
 63
     7
 74
     1
 91
        4
 64
     7
 65
   257
 75
     1
175
     1
 42
1.0
 92
        0
 66
   257
 43
1.0
 76
     1
 77
     6
 78
     2
 67
     7
 79
     5
170
     0
171
     0
290
     0
174
     0
 93
        1
 44
0.0
173
     0
291
     0
 45
0.0
1001
ACAD
1000
AcDbSavedByObjectVersion
1070
     0
  0
VISUALSTYLE
  5
32
102
{ACAD_REACTORS
330
2A
102
}
102
{ACAD_XDICTIONARY
360
46A
102
}
330
2A
100
AcDbVisualStyle
  2
Basic
 70
     7
 71
     1
 72
     0
 73
     1
 90
        0
 40
-0.6
 41
-30.0
 62
     5
 63
     7
 74
     0
 91
        4
 64
     7
 65
   257
 75
     1
175
     1
 42
1.0
 92
        8
 66
     7
 43
1.0
 76
     1
 77
     6
 78
     2
 67
     7
 79
     5
170
     0
171
     0
290
     0
174
     0
 93
        1
 44
0.0
173
     0
291
     1
 45
0.0
1001
ACAD
1000
AcDbSavedByObjectVersion
1070
     0
  0
VISUALSTYLE
  5
36
102
{ACAD_REACTORS
330
2A
102
}
102
{ACAD_XDICTIONARY
360
472
102
}
330
2A
100
AcDbVisualStyle
  2
Brighten
 70
    12
 71
     2
 72
     2
 73
     0
 90
        0
 40
-0.6
 41
-30.0
 62
     5
 63
     7
 74
     1
 91
        4
 64
     7
 65
   257
 75
     1
175
     1
 42
1.0
 92
        8
 66
     7
 43
1.0
 76
     1
 77
     6
 78
     2
 67
     7
 79
     5
170
     0
171
     0
290
     0
174
     0
 93
        1
 44
50.0
173
     0
291
     1
 45
0.0
1001
ACAD
1000
AcDbSavedByObjectVersion
1070
     0
  0
VISUALSTYLE
  5
3A
102
{ACAD_REACTORS
330
2A
102
}
102
{ACAD_XDICTIONARY
360
47A
102
}
330
2A
100
AcDbVisualStyle
  2
ColorChange
 70
    16
 71
     2
 72
     2
 73
     3
 90
        0
 40
-0.6
 41
-30.0
 62
     5
 63
     8
 74
     1
 91
        4
 64
     7
 65
   257
 75
     1
175
     1
 42
1.0
 92
        8
 66
     8
 43
1.0
 76
     1
 77
     6
 78
     2
 67
     7
 79
     5
170
     0
171
     0
290
     0
174
     0
 93
        1
 44
0.0
173
     0
291
     1
 45
0.0
1001
ACAD
1000
AcDbSavedByObjectVersion
1070
     0
  0
VISUALSTYLE
  5
34
102
{ACAD_REACTORS
330
2A
102
}
102
{ACAD_XDICTIONARY
360
46E
102
}
330
2A
100
AcDbVisualStyle
  2
Conceptual
 70
     9
 71
     3
 72
     2
 73
     0
 90
        0
 40
-0.6
 41
-30.0
 62
     5
 63
     7
 74
     2
 91
        2
 64
     7
 65
   257
 75
     1
175
     1
 42
40.0
 92
        8
 66
     7
 43
1.0
 76
     1
 77
     6
 78
     2
 67
     7
 79
     3
170
     0
171
     0
290
     0
174
     0
 93
        1
 44
0.0
173
     0
291
     0
 45
0.0
1001
ACAD
1000
AcDbSavedByObjectVersion
1070
     0
  0
VISUALSTYLE
  5
35
102
{ACAD_REACTORS
330
2A
102
}
102
{ACAD_XDICTIONARY
360
470
102
}
330
2A
100
AcDbVisualStyle
  2
Dim
 70
    11
 71
     2
 72
     2
 73
     0
 90
        0
 40
-0.6
 41
-30.0
 62
     5
 63
     7
 74
     1
 91
        4
 64
     7
 65
   257
 75
     1
175
     1
 42
1.0
 92
        8
 66
     7
 43
1.0
 76
     1
 77
     6
 78
     2
 67
     7
 79
     5
170
     0
171
     0
290
     0
174
     0
 93
        1
 44
-50.0
173
     0
291
     1
 45
0.0
1001
ACAD
1000
AcDbSavedByObjectVersion
1070
     0
  0
VISUALSTYLE
  5
39
102
{ACAD_REACTORS
330
2A
102
}
102
{ACAD_XDICTIONARY
360
478
102
}
330
2A
100
AcDbVisualStyle
  2
Facepattern
 70
    15
 71
     2
 72
     2
 73
     0
 90
        0
 40
-0.6
 41
-30.0
 62
     5
 63
     7
 74
     1
 91
        4
 64
     7
 65
   257
 75
     1
175
     1
 42
1.0
 92
        8
 66
     7
 43
1.0
 76
     1
 77
     6
 78
     2
 67
     7
 79
     5
170
     0
171
     0
290
     0
174
     0
 93
        1
 44
0.0
173
     0
291
     1
 45
0.0
1001
ACAD
1000
AcDbSavedByObjectVersion
1070
     0
  0
VISUALSTYLE
  5
2B
102
{ACAD_REACTORS
330
2A
102
}
102
{ACAD_XDICTIONARY
360
45C
102
}
330
2A
100
AcDbVisualStyle
  2
Flat
 70
     0
 71
     2
 72
     1
 73
     1
 90
        2
 40
-0.6
 41
30.0
 62
     5
 63
     7
 74
     0
 91
        4
 64
     7
 65
   257
 75
     1
175
     1
 42
1.0
 92
        8
 66
     7
 43
1.0
 76
     1
 77
     6
 78
     2
 67
     7
 79
     5
170
     0
171
     0
290
     0
174
     0
 93
       13
 44
0.0
173
     0
291
     1
 45
0.0
1001
ACAD
1000
AcDbSavedByObjectVersion
1070
     0
  0
VISUALSTYLE
  5
2C
102
{ACAD_REACTORS
330
2A
102
}
102
{ACAD_XDICTIONARY
360
45E
102
}
330
2A
100
AcDbVisualStyle
  2
FlatWithEdges
 70
     1
 71
     2
 72
     1
 73
     1
 90
        2
 40
-0.6
 41
30.0
 62
     5
 63
     7
 74
     1
 91
        4
 64
     7
 65
   257
 75
     1
175
     1
 42
1.0
 92
        0
 66
   257
 43
1.0
 76
     1
 77
     6
 78
     2
 67
     7
 79
     5
170
     0
171
     0
290
     0
174
     0
 93
       13
 44
0.0
173
     0
291
     1
 45
0.0
1001
ACAD
1000
AcDbSavedByObjectVersion
1070
     0
  0
VISUALSTYLE
  5
2D
102
{ACAD_REACTORS
330
2A
102
}
102
{ACAD_XDICTIONARY
360
460
102
}
330
2A
100
AcDbVisualStyle
  2
Gouraud
 70
     2
 71
     2
 72
     2
 73
     1
 90
        2
 40
-0.6
 41
30.0
 62
     5
 63
     7
 74
     0
 91
        4
 64
     7
 65
   257
 75
     1
175
     1
 42
1.0
 92
        0
 66
     7
 43
1.0
 76
     1
 77
     6
 78
     2
 67
     7
 79
     5
170
     0
171
     0
290
     0
174
     0
 93
       13
 44
0.0
173
     0
291
     1
 45
0.0
1001
ACAD
1000
AcDbSavedByObjectVersion
1070
     0
  0
VISUALSTYLE
  5
2E
102
{ACAD_REACTORS
330
2A
102
}
102
{ACAD_XDICTIONARY
360
462
102
}
330
2A
100
AcDbVisualStyle
  2
GouraudWithEdges
 70
     3
 71
     2
 72
     2
 73
     1
 90
        2
 40
-0.6
 41
30.0
 62
     5
 63
     7
 74
     1
 91
        4
 64
     7
 65
   257
 75
     1
175
     1
 42
1.0
 92
        0
 66
   257
 43
1.0
 76
     1
 77
     6
 78
     2
 67
     7
 79
     5
170
     0
171
     0
290
     0
174
     0
 93
       13
 44
0.0
173
     0
291
     1
 45
0.0
1001
ACAD
1000
AcDbSavedByObjectVersion
1070
     0
  0
VISUALSTYLE
  5
38
102
{ACAD_REACTORS
330
2A
102
}
102
{ACAD_XDICTIONARY
360
476
102
}
330
2A
100
AcDbVisualStyle
  2
Linepattern
 70
    14
 71
     2
 72
     2
 73
     0
 90
        0
 40
-0.6
 41
-30.0
 62
     5
 63
     7
 74
     1
 91
        4
 64
     7
 65
   257
 75
     7
175
     7
 42
1.0
 92
        8
 66
     7
 43
1.0
 76
     1
 77
     6
 78
     2
 67
     7
 79
     5
170
     0
171
     0
290
     0
174
     0
 93
        1
 44
0.0
173
     0
291
     1
 45
0.0
1001
ACAD
1000
AcDbSavedByObjectVersion
1070
     0
  0
VISUALSTYLE
  5
33
102
{ACAD_REACTORS
330
2A
102
}
102
{ACAD_XDICTIONARY
360
46C
102
}
330
2A
100
AcDbVisualStyle
  2
Realistic
 70
     8
 71
     2
 72
     2
 73
     0
 90
        0
 40
-0.6
 41
-30.0
 62
     5
 63
     7
 74
     1
 91
        0
 64
     7
 65
   257
 75
     1
175
     1
 42
1.0
 92
        8
 66
     8
 43
1.0
 76
     1
 77
     6
 78
     2
 67
     7
 79
     5
170
     0
171
     0
290
     0
174
     0
 93
       13
 44
0.0
173
     0
291
     0
 45
0.0
1001
ACAD
1000
AcDbSavedByObjectVersion
1070
     0
  0
VISUALSTYLE
  5
37
102
{ACAD_REACTORS
330
2A
102
}
102
{ACAD_XDICTIONARY
360
474
102
}
330
2A
100
AcDbVisualStyle
  2
Thicken
 70
    13
 71
     2
 72
     2
 73
     0
 90
        0
 40
-0.6
 41
-30.0
 62
     5
 63
     7
 74
     1
 91
        4
 64
     7
 65
   257
 75
     1
175
     1
 42
1.0
 92
       12
 66
     7
 43
1.0
 76
     1
 77
     6
 78
     2
 67
     7
 79
     5
170
     0
171
     0
290
     0
174
     0
 93
        1
 44
0.0
173
     0
291
     1
 45
0.0
1001
ACAD
1000
AcDbSavedByObjectVersion
1070
     0
  0
DICTIONARYVAR
  5
45A
102
{ACAD_REACTORS
330
457
102
}
330
457
100
DictionaryVariables
280
     0
  1
2
  0
DICTIONARYVAR
  5
45B
102
{ACAD_REACTORS
330
457
102
}
330
457
100
DictionaryVariables
280
     0
  1
1
  0
DICTIONARY
  5
47E
330
3D
100
AcDbDictionary
280
     1
281
     1
  3
ACAD_XREC_ROUNDTRIP
360
47F
  0
DICTIONARY
  5
47C
330
3C
100
AcDbDictionary
280
     1
281
     1
  3
ACAD_XREC_ROUNDTRIP
360
47D
  0
DICTIONARY
  5
480
330
3E
100
AcDbDictionary
280
     1
281
     1
  3
ACAD_XREC_ROUNDTRIP
360
481
  0
DICTIONARY
  5
464
330
2F
100
AcDbDictionary
280
     1
281
     1
  3
ACAD_XREC_ROUNDTRIP
360
465
  0
DICTIONARY
  5
468
330
31
100
AcDbDictionary
280
     1
281
     1
  3
ACAD_XREC_ROUNDTRIP
360
469
  0
DICTIONARY
  5
466
330
30
100
AcDbDictionary
280
     1
281
     1
  3
ACAD_XREC_ROUNDTRIP
360
467
  0
DICTIONARY
  5
46A
330
32
100
AcDbDictionary
280
     1
281
     1
  3
ACAD_XREC_ROUNDTRIP
360
46B
  0
DICTIONARY
  5
472
330
36
100
AcDbDictionary
280
     1
281
     1
  3
ACAD_XREC_ROUNDTRIP
360
473
  0
DICTIONARY
  5
47A
330
3A
100
AcDbDictionary
280
     1
281
     1
  3
ACAD_XREC_ROUNDTRIP
360
47B
  0
DICTIONARY
  5
46E
330
34
100
AcDbDictionary
280
     1
281
     1
  3
ACAD_XREC_ROUNDTRIP
360
46F
  0
DICTIONARY
  5
470
330
35
100
AcDbDictionary
280
     1
281
     1
  3
ACAD_XREC_ROUNDTRIP
360
471
  0
DICTIONARY
  5
478
330
39
100
AcDbDictionary
280
     1
281
     1
  3
ACAD_XREC_ROUNDTRIP
360
479
  0
DICTIONARY
  5
45C
330
2B
100
AcDbDictionary
280
     1
281
     1
  3
ACAD_XREC_ROUNDTRIP
360
45D
  0
DICTIONARY
  5
45E
330
2C
100
AcDbDictionary
280
     1
281
     1
  3
ACAD_XREC_ROUNDTRIP
360
45F
  0
DICTIONARY
  5
460
330
2D
100
AcDbDictionary
280
     1
281
     1
  3
ACAD_XREC_ROUNDTRIP
360
461
  0
DICTIONARY
  5
462
330
2E
100
AcDbDictionary
280
     1
281
     1
  3
ACAD_XREC_ROUNDTRIP
360
463
  0
DICTIONARY
  5
476
330
38
100
AcDbDictionary
280
     1
281
     1
  3
ACAD_XREC_ROUNDTRIP
360
477
  0
DICTIONARY
  5
46C
330
33
100
AcDbDictionary
280
     1
281
     1
  3
ACAD_XREC_ROUNDTRIP
360
46D
  0
DICTIONARY
  5
474
330
37
100
AcDbDictionary
280
     1
281
     1
  3
ACAD_XREC_ROUNDTRIP
360
475
  0
XRECORD
  5
47F
102
{ACAD_REACTORS
330
47E
102
}
330
47E
100
AcDbXrecord
280
     1
102
MATERIAL
148
0.0
149
0.0
149
0.0
 93
        0
 94
      127
282
     0
 72
     1
 77
     1
171
     1
175
     1
179
     1
273
     0
  0
XRECORD
  5
47D
102
{ACAD_REACTORS
330
47C
102
}
330
47C
100
AcDbXrecord
280
     1
102
MATERIAL
148
0.0
149
0.0
149
0.0
 93
        0
 94
      127
282
     0
 72
     1
 77
     1
171
     1
175
     1
179
     1
273
     0
  0
XRECORD
  5
481
102
{ACAD_REACTORS
330
480
102
}
330
480
100
AcDbXrecord
280
     1
102
MATERIAL
148
0.0
149
0.0
149
0.0
 93
        0
 94
      127
282
     0
 72
     1
 77
     1
171
     1
175
     1
179
     1
273
     0
  0
XRECORD
  5
465
102
{ACAD_REACTORS
330
464
102
}
330
464
100
AcDbXrecord
280
     1
102
RTVSPropertyOp0
 70
     1
102
RTVSPropertyOp1
 70
     1
102
RTVSPropertyOp2
 70
     1
102
RTVSPropertyOp3
 70
     1
102
RTVSPropertyOp4
 70
     1
102
RTVSPropertyOp5
 70
     1
102
RTVSPropertyOp6
 70
     1
102
RTVSPropertyOp7
 70
     1
102
RTVSPropertyOp8
 70
     1
102
RTVSPropertyOp9
 70
     1
102
RTVSPropertyOp10
 70
     1
102
RTVSPropertyOp11
 70
     1
102
RTVSPropertyOp12
 70
     1
102
RTVSPropertyOp13
 70
     1
102
RTVSPropertyOp14
 70
     1
102
RTVSPropertyOp15
 70
     1
102
RTVSPropertyOp16
 70
     1
102
RTVSPropertyOp17
 70
     1
102
RTVSPropertyOp18
 70
     1
102
RTVSPropertyOp19
 70
     1
102
RTVSPropertyOp20
 70
     1
102
RTVSPropertyOp21
 70
     1
102
RTVSPropertyOp22
 70
     1
102
RTVSPropertyOp23
 70
     1
102
RTVSPropertyOp24
 70
     1
102
RTVSPropertyOp25
 70
     1
102
RTVSPropertyOp26
 70
     1
102
RTVSPropertyOp27
 70
     1
102
RTVSPropertyOp28
 70
     1
102
RTVSPropertyOp29
 70
     1
102
RTVSPropertyOp30
 70
     1
102
RTVSPropertyOp31
 70
     1
102
RTVSPropertyOp32
 70
     1
  0
XRECORD
  5
469
102
{ACAD_REACTORS
330
468
102
}
330
468
100
AcDbXrecord
280
     1
102
RTVSPropertyOp0
 70
     1
102
RTVSPropertyOp1
 70
     1
102
RTVSPropertyOp2
 70
     1
102
RTVSPropertyOp3
 70
     1
102
RTVSPropertyOp4
 70
     1
102
RTVSPropertyOp5
 70
     1
102
RTVSPropertyOp6
 70
     1
102
RTVSPropertyOp7
 70
     1
102
RTVSPropertyOp8
 70
     1
102
RTVSPropertyOp9
 70
     1
102
RTVSPropertyOp10
 70
     1
102
RTVSPropertyOp11
 70
     1
102
RTVSPropertyOp12
 70
     1
102
RTVSPropertyOp13
 70
     1
102
RTVSPropertyOp14
 70
     1
102
RTVSPropertyOp15
 70
     1
102
RTVSPropertyOp16
 70
     1
102
RTVSPropertyOp17
 70
     1
102
RTVSPropertyOp18
 70
     1
102
RTVSPropertyOp19
 70
     1
102
RTVSPropertyOp20
 70
     1
102
RTVSPropertyOp21
 70
     1
102
RTVSPropertyOp22
 70
     1
102
RTVSPropertyOp23
 70
     1
102
RTVSPropertyOp24
 70
     1
102
RTVSPropertyOp25
 70
     1
102
RTVSPropertyOp26
 70
     1
102
RTVSPropertyOp27
 70
     1
102
RTVSPropertyOp28
 70
     1
102
RTVSPropertyOp29
 70
     1
102
RTVSPropertyOp30
 70
     1
102
RTVSPropertyOp31
 70
     1
102
RTVSPropertyOp32
 70
     1
  0
XRECORD
  5
467
102
{ACAD_REACTORS
330
466
102
}
330
466
100
AcDbXrecord
280
     1
102
RTVSPropertyOp0
 70
     1
102
RTVSPropertyOp1
 70
     1
102
RTVSPropertyOp2
 70
     1
102
RTVSPropertyOp3
 70
     1
102
RTVSPropertyOp4
 70
     1
102
RTVSPropertyOp5
 70
     1
102
RTVSPropertyOp6
 70
     1
102
RTVSPropertyOp7
 70
     1
102
RTVSPropertyOp8
 70
     1
102
RTVSPropertyOp9
 70
     1
102
RTVSPropertyOp10
 70
     1
102
RTVSPropertyOp11
 70
     1
102
RTVSPropertyOp12
 70
     1
102
RTVSPropertyOp13
 70
     1
102
RTVSPropertyOp14
 70
     1
102
RTVSPropertyOp15
 70
     1
102
RTVSPropertyOp16
 70
     1
102
RTVSPropertyOp17
 70
     1
102
RTVSPropertyOp18
 70
     1
102
RTVSPropertyOp19
 70
     1
102
RTVSPropertyOp20
 70
     1
102
RTVSPropertyOp21
 70
     1
102
RTVSPropertyOp22
 70
     1
102
RTVSPropertyOp23
 70
     1
102
RTVSPropertyOp24
 70
     1
102
RTVSPropertyOp25
 70
     1
102
RTVSPropertyOp26
 70
     1
102
RTVSPropertyOp27
 70
     1
102
RTVSPropertyOp28
 70
     1
102
RTVSPropertyOp29
 70
     1
102
RTVSPropertyOp30
 70
     1
102
RTVSPropertyOp31
 70
     1
102
RTVSPropertyOp32
 70
     1
  0
XRECORD
  5
46B
102
{ACAD_REACTORS
330
46A
102
}
330
46A
100
AcDbXrecord
280
     1
102
RTVSPropertyOp0
 70
     1
102
RTVSPropertyOp1
 70
     1
102
RTVSPropertyOp2
 70
     1
102
RTVSPropertyOp3
 70
     1
102
RTVSPropertyOp4
 70
     1
102
RTVSPropertyOp5
 70
     1
102
RTVSPropertyOp6
 70
     1
102
RTVSPropertyOp7
 70
     1
102
RTVSPropertyOp8
 70
     1
102
RTVSPropertyOp9
 70
     1
102
RTVSPropertyOp10
 70
     1
102
RTVSPropertyOp11
 70
     1
102
RTVSPropertyOp12
 70
     1
102
RTVSPropertyOp13
 70
     1
102
RTVSPropertyOp14
 70
     1
102
RTVSPropertyOp15
 70
     1
102
RTVSPropertyOp16
 70
     1
102
RTVSPropertyOp17
 70
     1
102
RTVSPropertyOp18
 70
     1
102
RTVSPropertyOp19
 70
     1
102
RTVSPropertyOp20
 70
     1
102
RTVSPropertyOp21
 70
     1
102
RTVSPropertyOp22
 70
     1
102
RTVSPropertyOp23
 70
     1
102
RTVSPropertyOp24
 70
     1
102
RTVSPropertyOp25
 70
     1
102
RTVSPropertyOp26
 70
     1
102
RTVSPropertyOp27
 70
     1
102
RTVSPropertyOp28
 70
     1
102
RTVSPropertyOp29
 70
     1
102
RTVSPropertyOp30
 70
     1
102
RTVSPropertyOp31
 70
     1
102
RTVSPropertyOp32
 70
     1
  0
XRECORD
  5
473
102
{ACAD_REACTORS
330
472
102
}
330
472
100
AcDbXrecord
280
     1
102
RTVSPropertyOp0
 70
     1
102
RTVSPropertyOp1
 70
     1
102
RTVSPropertyOp2
 70
     1
102
RTVSPropertyOp3
 70
     1
102
RTVSPropertyOp4
 70
     1
102
RTVSPropertyOp5
 70
     1
102
RTVSPropertyOp6
 70
     1
102
RTVSPropertyOp7
 70
     1
102
RTVSPropertyOp8
 70
     1
102
RTVSPropertyOp9
 70
     1
102
RTVSPropertyOp10
 70
     1
102
RTVSPropertyOp11
 70
     1
102
RTVSPropertyOp12
 70
     1
102
RTVSPropertyOp13
 70
     1
102
RTVSPropertyOp14
 70
     1
102
RTVSPropertyOp15
 70
     1
102
RTVSPropertyOp16
 70
     1
102
RTVSPropertyOp17
 70
     1
102
RTVSPropertyOp18
 70
     1
102
RTVSPropertyOp19
 70
     1
102
RTVSPropertyOp20
 70
     1
102
RTVSPropertyOp21
 70
     1
102
RTVSPropertyOp22
 70
     1
102
RTVSPropertyOp23
 70
     1
102
RTVSPropertyOp24
 70
     1
102
RTVSPropertyOp25
 70
     1
102
RTVSPropertyOp26
 70
     1
102
RTVSPropertyOp27
 70
     1
102
RTVSPropertyOp28
 70
     1
102
RTVSPropertyOp29
 70
     1
102
RTVSPropertyOp30
 70
     1
102
RTVSPropertyOp31
 70
     1
102
RTVSPropertyOp32
 70
     1
  0
XRECORD
  5
47B
102
{ACAD_REACTORS
330
47A
102
}
330
47A
100
AcDbXrecord
280
     1
102
RTVSPropertyOp0
 70
     1
102
RTVSPropertyOp1
 70
     1
102
RTVSPropertyOp2
 70
     1
102
RTVSPropertyOp3
 70
     1
102
RTVSPropertyOp4
 70
     1
102
RTVSPropertyOp5
 70
     1
102
RTVSPropertyOp6
 70
     1
102
RTVSPropertyOp7
 70
     1
102
RTVSPropertyOp8
 70
     1
102
RTVSPropertyOp9
 70
     1
102
RTVSPropertyOp10
 70
     1
102
RTVSPropertyOp11
 70
     1
102
RTVSPropertyOp12
 70
     1
102
RTVSPropertyOp13
 70
     1
102
RTVSPropertyOp14
 70
     1
102
RTVSPropertyOp15
 70
     1
102
RTVSPropertyOp16
 70
     1
102
RTVSPropertyOp17
 70
     1
102
RTVSPropertyOp18
 70
     1
102
RTVSPropertyOp19
 70
     1
102
RTVSPropertyOp20
 70
     1
102
RTVSPropertyOp21
 70
     1
102
RTVSPropertyOp22
 70
     1
102
RTVSPropertyOp23
 70
     1
102
RTVSPropertyOp24
 70
     1
102
RTVSPropertyOp25
 70
     1
102
RTVSPropertyOp26
 70
     1
102
RTVSPropertyOp27
 70
     1
102
RTVSPropertyOp28
 70
     1
102
RTVSPropertyOp29
 70
     1
102
RTVSPropertyOp30
 70
     1
102
RTVSPropertyOp31
 70
     1
102
RTVSPropertyOp32
 70
     1
  0
XRECORD
  5
46F
102
{ACAD_REACTORS
330
46E
102
}
330
46E
100
AcDbXrecord
280
     1
102
RTVSPropertyOp0
 70
     1
102
RTVSPropertyOp1
 70
     1
102
RTVSPropertyOp2
 70
     1
102
RTVSPropertyOp3
 70
     1
102
RTVSPropertyOp4
 70
     1
102
RTVSPropertyOp5
 70
     1
102
RTVSPropertyOp6
 70
     1
102
RTVSPropertyOp7
 70
     1
102
RTVSPropertyOp8
 70
     1
102
RTVSPropertyOp9
 70
     1
102
RTVSPropertyOp10
 70
     1
102
RTVSPropertyOp11
 70
     1
102
RTVSPropertyOp12
 70
     1
102
RTVSPropertyOp13
 70
     1
102
RTVSPropertyOp14
 70
     1
102
RTVSPropertyOp15
 70
     1
102
RTVSPropertyOp16
 70
     1
102
RTVSPropertyOp17
 70
     1
102
RTVSPropertyOp18
 70
     1
102
RTVSPropertyOp19
 70
     1
102
RTVSPropertyOp20
 70
     1
102
RTVSPropertyOp21
 70
     1
102
RTVSPropertyOp22
 70
     1
102
RTVSPropertyOp23
 70
     1
102
RTVSPropertyOp24
 70
     1
102
RTVSPropertyOp25
 70
     1
102
RTVSPropertyOp26
 70
     1
102
RTVSPropertyOp27
 70
     1
102
RTVSPropertyOp28
 70
     1
102
RTVSPropertyOp29
 70
     1
102
RTVSPropertyOp30
 70
     1
102
RTVSPropertyOp31
 70
     1
102
RTVSPropertyOp32
 70
     1
  0
XRECORD
  5
471
102
{ACAD_REACTORS
330
470
102
}
330
470
100
AcDbXrecord
280
     1
102
RTVSPropertyOp0
 70
     1
102
RTVSPropertyOp1
 70
     1
102
RTVSPropertyOp2
 70
     1
102
RTVSPropertyOp3
 70
     1
102
RTVSPropertyOp4
 70
     1
102
RTVSPropertyOp5
 70
     1
102
RTVSPropertyOp6
 70
     1
102
RTVSPropertyOp7
 70
     1
102
RTVSPropertyOp8
 70
     1
102
RTVSPropertyOp9
 70
     1
102
RTVSPropertyOp10
 70
     1
102
RTVSPropertyOp11
 70
     1
102
RTVSPropertyOp12
 70
     1
102
RTVSPropertyOp13
 70
     1
102
RTVSPropertyOp14
 70
     1
102
RTVSPropertyOp15
 70
     1
102
RTVSPropertyOp16
 70
     1
102
RTVSPropertyOp17
 70
     1
102
RTVSPropertyOp18
 70
     1
102
RTVSPropertyOp19
 70
     1
102
RTVSPropertyOp20
 70
     1
102
RTVSPropertyOp21
 70
     1
102
RTVSPropertyOp22
 70
     1
102
RTVSPropertyOp23
 70
     1
102
RTVSPropertyOp24
 70
     1
102
RTVSPropertyOp25
 70
     1
102
RTVSPropertyOp26
 70
     1
102
RTVSPropertyOp27
 70
     1
102
RTVSPropertyOp28
 70
     1
102
RTVSPropertyOp29
 70
     1
102
RTVSPropertyOp30
 70
     1
102
RTVSPropertyOp31
 70
     1
102
RTVSPropertyOp32
 70
     1
  0
XRECORD
  5
479
102
{ACAD_REACTORS
330
478
102
}
330
478
100
AcDbXrecord
280
     1
102
RTVSPropertyOp0
 70
     1
102
RTVSPropertyOp1
 70
     1
102
RTVSPropertyOp2
 70
     1
102
RTVSPropertyOp3
 70
     1
102
RTVSPropertyOp4
 70
     1
102
RTVSPropertyOp5
 70
     1
102
RTVSPropertyOp6
 70
     1
102
RTVSPropertyOp7
 70
     1
102
RTVSPropertyOp8
 70
     1
102
RTVSPropertyOp9
 70
     1
102
RTVSPropertyOp10
 70
     1
102
RTVSPropertyOp11
 70
     1
102
RTVSPropertyOp12
 70
     1
102
RTVSPropertyOp13
 70
     1
102
RTVSPropertyOp14
 70
     1
102
RTVSPropertyOp15
 70
     1
102
RTVSPropertyOp16
 70
     1
102
RTVSPropertyOp17
 70
     1
102
RTVSPropertyOp18
 70
     1
102
RTVSPropertyOp19
 70
     1
102
RTVSPropertyOp20
 70
     1
102
RTVSPropertyOp21
 70
     1
102
RTVSPropertyOp22
 70
     1
102
RTVSPropertyOp23
 70
     1
102
RTVSPropertyOp24
 70
     1
102
RTVSPropertyOp25
 70
     1
102
RTVSPropertyOp26
 70
     1
102
RTVSPropertyOp27
 70
     1
102
RTVSPropertyOp28
 70
     1
102
RTVSPropertyOp29
 70
     1
102
RTVSPropertyOp30
 70
     1
102
RTVSPropertyOp31
 70
     1
102
RTVSPropertyOp32
 70
     1
  0
XRECORD
  5
45D
102
{ACAD_REACTORS
330
45C
102
}
330
45C
100
AcDbXrecord
280
     1
102
RTVSPropertyOp0
 70
     1
102
RTVSPropertyOp1
 70
     1
102
RTVSPropertyOp2
 70
     1
102
RTVSPropertyOp3
 70
     1
102
RTVSPropertyOp4
 70
     1
102
RTVSPropertyOp5
 70
     1
102
RTVSPropertyOp6
 70
     1
102
RTVSPropertyOp7
 70
     1
102
RTVSPropertyOp8
 70
     1
102
RTVSPropertyOp9
 70
     1
102
RTVSPropertyOp10
 70
     1
102
RTVSPropertyOp11
 70
     1
102
RTVSPropertyOp12
 70
     1
102
RTVSPropertyOp13
 70
     1
102
RTVSPropertyOp14
 70
     1
102
RTVSPropertyOp15
 70
     1
102
RTVSPropertyOp16
 70
     1
102
RTVSPropertyOp17
 70
     1
102
RTVSPropertyOp18
 70
     1
102
RTVSPropertyOp19
 70
     1
102
RTVSPropertyOp20
 70
     1
102
RTVSPropertyOp21
 70
     1
102
RTVSPropertyOp22
 70
     1
102
RTVSPropertyOp23
 70
     1
102
RTVSPropertyOp24
 70
     1
102
RTVSPropertyOp25
 70
     1
102
RTVSPropertyOp26
 70
     1
102
RTVSPropertyOp27
 70
     1
102
RTVSPropertyOp28
 70
     1
102
RTVSPropertyOp29
 70
     1
102
RTVSPropertyOp30
 70
     1
102
RTVSPropertyOp31
 70
     1
102
RTVSPropertyOp32
 70
     1
  0
XRECORD
  5
45F
102
{ACAD_REACTORS
330
45E
102
}
330
45E
100
AcDbXrecord
280
     1
102
RTVSPropertyOp0
 70
     1
102
RTVSPropertyOp1
 70
     1
102
RTVSPropertyOp2
 70
     1
102
RTVSPropertyOp3
 70
     1
102
RTVSPropertyOp4
 70
     1
102
RTVSPropertyOp5
 70
     1
102
RTVSPropertyOp6
 70
     1
102
RTVSPropertyOp7
 70
     1
102
RTVSPropertyOp8
 70
     1
102
RTVSPropertyOp9
 70
     1
102
RTVSPropertyOp10
 70
     1
102
RTVSPropertyOp11
 70
     1
102
RTVSPropertyOp12
 70
     1
102
RTVSPropertyOp13
 70
     1
102
RTVSPropertyOp14
 70
     1
102
RTVSPropertyOp15
 70
     1
102
RTVSPropertyOp16
 70
     1
102
RTVSPropertyOp17
 70
     1
102
RTVSPropertyOp18
 70
     1
102
RTVSPropertyOp19
 70
     1
102
RTVSPropertyOp20
 70
     1
102
RTVSPropertyOp21
 70
     1
102
RTVSPropertyOp22
 70
     1
102
RTVSPropertyOp23
 70
     1
102
RTVSPropertyOp24
 70
     1
102
RTVSPropertyOp25
 70
     1
102
RTVSPropertyOp26
 70
     1
102
RTVSPropertyOp27
 70
     1
102
RTVSPropertyOp28
 70
     1
102
RTVSPropertyOp29
 70
     1
102
RTVSPropertyOp30
 70
     1
102
RTVSPropertyOp31
 70
     1
102
RTVSPropertyOp32
 70
     1
  0
XRECORD
  5
461
102
{ACAD_REACTORS
330
460
102
}
330
460
100
AcDbXrecord
280
     1
102
RTVSPropertyOp0
 70
     1
102
RTVSPropertyOp1
 70
     1
102
RTVSPropertyOp2
 70
     1
102
RTVSPropertyOp3
 70
     1
102
RTVSPropertyOp4
 70
     1
102
RTVSPropertyOp5
 70
     1
102
RTVSPropertyOp6
 70
     1
102
RTVSPropertyOp7
 70
     1
102
RTVSPropertyOp8
 70
     1
102
RTVSPropertyOp9
 70
     1
102
RTVSPropertyOp10
 70
     1
102
RTVSPropertyOp11
 70
     1
102
RTVSPropertyOp12
 70
     1
102
RTVSPropertyOp13
 70
     1
102
RTVSPropertyOp14
 70
     1
102
RTVSPropertyOp15
 70
     1
102
RTVSPropertyOp16
 70
     1
102
RTVSPropertyOp17
 70
     1
102
RTVSPropertyOp18
 70
     1
102
RTVSPropertyOp19
 70
     1
102
RTVSPropertyOp20
 70
     1
102
RTVSPropertyOp21
 70
     1
102
RTVSPropertyOp22
 70
     1
102
RTVSPropertyOp23
 70
     1
102
RTVSPropertyOp24
 70
     1
102
RTVSPropertyOp25
 70
     1
102
RTVSPropertyOp26
 70
     1
102
RTVSPropertyOp27
 70
     1
102
RTVSPropertyOp28
 70
     1
102
RTVSPropertyOp29
 70
     1
102
RTVSPropertyOp30
 70
     1
102
RTVSPropertyOp31
 70
     1
102
RTVSPropertyOp32
 70
     1
  0
XRECORD
  5
463
102
{ACAD_REACTORS
330
462
102
}
330
462
100
AcDbXrecord
280
     1
102
RTVSPropertyOp0
 70
     1
102
RTVSPropertyOp1
 70
     1
102
RTVSPropertyOp2
 70
     1
102
RTVSPropertyOp3
 70
     1
102
RTVSPropertyOp4
 70
     1
102
RTVSPropertyOp5
 70
     1
102
RTVSPropertyOp6
 70
     1
102
RTVSPropertyOp7
 70
     1
102
RTVSPropertyOp8
 70
     1
102
RTVSPropertyOp9
 70
     1
102
RTVSPropertyOp10
 70
     1
102
RTVSPropertyOp11
 70
     1
102
RTVSPropertyOp12
 70
     1
102
RTVSPropertyOp13
 70
     1
102
RTVSPropertyOp14
 70
     1
102
RTVSPropertyOp15
 70
     1
102
RTVSPropertyOp16
 70
     1
102
RTVSPropertyOp17
 70
     1
102
RTVSPropertyOp18
 70
     1
102
RTVSPropertyOp19
 70
     1
102
RTVSPropertyOp20
 70
     1
102
RTVSPropertyOp21
 70
     1
102
RTVSPropertyOp22
 70
     1
102
RTVSPropertyOp23
 70
     1
102
RTVSPropertyOp24
 70
     1
102
RTVSPropertyOp25
 70
     1
102
RTVSPropertyOp26
 70
     1
102
RTVSPropertyOp27
 70
     1
102
RTVSPropertyOp28
 70
     1
102
RTVSPropertyOp29
 70
     1
102
RTVSPropertyOp30
 70
     1
102
RTVSPropertyOp31
 70
     1
102
RTVSPropertyOp32
 70
     1
  0
XRECORD
  5
477
102
{ACAD_REACTORS
330
476
102
}
330
476
100
AcDbXrecord
280
     1
102
RTVSPropertyOp0
 70
     1
102
RTVSPropertyOp1
 70
     1
102
RTVSPropertyOp2
 70
     1
102
RTVSPropertyOp3
 70
     1
102
RTVSPropertyOp4
 70
     1
102
RTVSPropertyOp5
 70
     1
102
RTVSPropertyOp6
 70
     1
102
RTVSPropertyOp7
 70
     1
102
RTVSPropertyOp8
 70
     1
102
RTVSPropertyOp9
 70
     1
102
RTVSPropertyOp10
 70
     1
102
RTVSPropertyOp11
 70
     1
102
RTVSPropertyOp12
 70
     1
102
RTVSPropertyOp13
 70
     1
102
RTVSPropertyOp14
 70
     1
102
RTVSPropertyOp15
 70
     1
102
RTVSPropertyOp16
 70
     1
102
RTVSPropertyOp17
 70
     1
102
RTVSPropertyOp18
 70
     1
102
RTVSPropertyOp19
 70
     1
102
RTVSPropertyOp20
 70
     1
102
RTVSPropertyOp21
 70
     1
102
RTVSPropertyOp22
 70
     1
102
RTVSPropertyOp23
 70
     1
102
RTVSPropertyOp24
 70
     1
102
RTVSPropertyOp25
 70
     1
102
RTVSPropertyOp26
 70
     1
102
RTVSPropertyOp27
 70
     1
102
RTVSPropertyOp28
 70
     1
102
RTVSPropertyOp29
 70
     1
102
RTVSPropertyOp30
 70
     1
102
RTVSPropertyOp31
 70
     1
102
RTVSPropertyOp32
 70
     1
  0
XRECORD
  5
46D
102
{ACAD_REACTORS
330
46C
102
}
330
46C
100
AcDbXrecord
280
     1
102
RTVSPropertyOp0
 70
     1
102
RTVSPropertyOp1
 70
     1
102
RTVSPropertyOp2
 70
     1
102
RTVSPropertyOp3
 70
     1
102
RTVSPropertyOp4
 70
     1
102
RTVSPropertyOp5
 70
     1
102
RTVSPropertyOp6
 70
     1
102
RTVSPropertyOp7
 70
     1
102
RTVSPropertyOp8
 70
     1
102
RTVSPropertyOp9
 70
     1
102
RTVSPropertyOp10
 70
     1
102
RTVSPropertyOp11
 70
     1
102
RTVSPropertyOp12
 70
     1
102
RTVSPropertyOp13
 70
     1
102
RTVSPropertyOp14
 70
     1
102
RTVSPropertyOp15
 70
     1
102
RTVSPropertyOp16
 70
     1
102
RTVSPropertyOp17
 70
     1
102
RTVSPropertyOp18
 70
     1
102
RTVSPropertyOp19
 70
     1
102
RTVSPropertyOp20
 70
     1
102
RTVSPropertyOp21
 70
     1
102
RTVSPropertyOp22
 70
     1
102
RTVSPropertyOp23
 70
     1
102
RTVSPropertyOp24
 70
     1
102
RTVSPropertyOp25
 70
     1
102
RTVSPropertyOp26
 70
     1
102
RTVSPropertyOp27
 70
     1
102
RTVSPropertyOp28
 70
     1
102
RTVSPropertyOp29
 70
     1
102
RTVSPropertyOp30
 70
     1
102
RTVSPropertyOp31
 70
     1
102
RTVSPropertyOp32
 70
     1
  0
XRECORD
  5
475
102
{ACAD_REACTORS
330
474
102
}
330
474
100
AcDbXrecord
280
     1
102
RTVSPropertyOp0
 70
     1
102
RTVSPropertyOp1
 70
     1
102
RTVSPropertyOp2
 70
     1
102
RTVSPropertyOp3
 70
     1
102
RTVSPropertyOp4
 70
     1
102
RTVSPropertyOp5
 70
     1
102
RTVSPropertyOp6
 70
     1
102
RTVSPropertyOp7
 70
     1
102
RTVSPropertyOp8
 70
     1
102
RTVSPropertyOp9
 70
     1
102
RTVSPropertyOp10
 70
     1
102
RTVSPropertyOp11
 70
     1
102
RTVSPropertyOp12
 70
     1
102
RTVSPropertyOp13
 70
     1
102
RTVSPropertyOp14
 70
     1
102
RTVSPropertyOp15
 70
     1
102
RTVSPropertyOp16
 70
     1
102
RTVSPropertyOp17
 70
     1
102
RTVSPropertyOp18
 70
     1
102
RTVSPropertyOp19
 70
     1
102
RTVSPropertyOp20
 70
     1
102
RTVSPropertyOp21
 70
     1
102
RTVSPropertyOp22
 70
     1
102
RTVSPropertyOp23
 70
     1
102
RTVSPropertyOp24
 70
     1
102
RTVSPropertyOp25
 70
     1
102
RTVSPropertyOp26
 70
     1
102
RTVSPropertyOp27
 70
     1
102
RTVSPropertyOp28
 70
     1
102
RTVSPropertyOp29
 70
     1
102
RTVSPropertyOp30
 70
     1
102
RTVSPropertyOp31
 70
     1
102
RTVSPropertyOp32
 70
     1
  0
ENDSEC
  0
EOF
